Скачать через торрент музыку Oscar Peterson - Jam Montreux 77 - 1989, FLAC бесплатно без регистрации torrent

Если у вас наблюдаются проблемы со скриншотами, переходом по ссылками, скачиванием торрентов - проблемы в блокировщике рекламы AdBlock. #хорошегоДня!


Статистика раздачи
Размер:  353 MB   |    Зарегистрирован:  5 лет 8 месяцев   |    .torrent скачан:  39 раз   |   
Раздают:  1  
   
Загрузка...
 
Автор Сообщение

Umakiro

avatar Umakiro


•Oscar Peterson - Jam Montreux '77•

Жанр: Bop
Год издания диска: 1989
Издатель (лейбл): Prestige
Номер по каталогу: OJC20 378-2
Аудиокодек: FLAC (*.flac)
Тип рипа: tracks+.cue
Битрейт аудио: lossless
Продолжительность: 00:51:30
Источник (релизер): mishka1981
Наличие сканов в содержимом раздачи: да

Треклист:

01. Ali And Frazier
02. If I Were A Bell
03. Things Ain't What They Used To Be
04. Just In Time
05. Bye Bye Blues


Personnel:

Dizzy Gillespie (tp)
Clark Terry (tp)
Eddie "Lockjaw" Davis (ts)
Oscar Peterson (p)
Niels-Henning Ørsted Pedersen(b)
Bobby Durham (dr)
 
Exact Audio Copy V1.0 beta 1 from 15. November 2010

EAC extraction logfile from 31. January 2012, 15:40

Oscar Peterson / Montreux'77

Used drive : Optiarc DVD RW AD-7710H Adapter: 1 ID: 0

Read mode : SecureUtilize accurate stream : YesDefeat audio cache : YesMake use of C2 pointers : No

Read offset correction : 48Overread into Lead-In and Lead-Out : NoFill up missing offset samples with silence : YesDelete leading and trailing silent blocks : NoNull samples used in CRC calculations : YesUsed interface : Native Win32 interface for Win NT & 2000Gap handling : Appended to previous track

Used output format : User Defined EncoderSelected bitrate : 896 kBit/sQuality : HighAdd ID3 tag : NoCommand line compressor : C:\Program Files\Exact Audio Copy\FLAC\FLAC.EXEAdditional command line options : -8 -V -T "ARTIST=%a" -T "TITLE=%t" -T "ALBUM=%g" -T "DATE=%y" -T "TRACKNUMBER=%n" -T "GENRE=%m" -T "COMMENT=%e" %j--picture="%i"%j %s -o %d

TOC of the extracted CD

Track | Start | Length | Start sector | End sector --------------------------------------------------------- 1 | 0:00.00 | 9:29.13 | 0 | 42687 2 | 9:29.13 | 10:54.15 | 42688 | 91752 3 | 20:23.28 | 13:03.73 | 91753 | 150550 4 | 33:27.26 | 10:10.15 | 150551 | 196315 5 | 43:37.41 | 8:13.36 | 196316 | 233326

Track 1

Filename C:\MY RIPS\01 - Ali And Frazier.wav

Pre-gap length 0:00:02.00

Peak level 96.5 % Extraction speed 3.0 X Track quality 99.9 % Test CRC 3A5AEE4A Copy CRC 3A5AEE4A Track not present in AccurateRip database Copy OK

Track 2

Filename C:\MY RIPS\02 - If I Were A Bell.wav

Peak level 92.2 % Extraction speed 4.1 X Track quality 100.0 % Test CRC 3AC2451A Copy CRC 3AC2451A Track not present in AccurateRip database Copy OK

Track 3

Filename C:\MY RIPS\03 - Things Ain't What They Used To Be.wav

Pre-gap length 0:00:02.74

Peak level 97.0 % Extraction speed 4.5 X Track quality 99.9 % Test CRC BADBD8C8 Copy CRC BADBD8C8 Track not present in AccurateRip database Copy OK

Track 4

Filename C:\MY RIPS\04 - Just In Time.wav

Peak level 95.5 % Extraction speed 5.3 X Track quality 100.0 % Test CRC A6A216CD Copy CRC A6A216CD Track not present in AccurateRip database Copy OK

Track 5

Filename C:\MY RIPS\05 - Bye Bye Blues.wav

Pre-gap length 0:00:02.74

Peak level 100.0 % Extraction speed 5.1 X Track quality 99.9 % Test CRC B010A7AA Copy CRC B010A7AA Track not present in AccurateRip database Copy OK

None of the tracks are present in the AccurateRip database

No errors occurred

End of status report

==== Log checksum ECA6EAD301006F874DA874924628A83C08883ECCDEF458B9C89ADC98B3E75D08 ====
 
REM GENRE JazzREM DATE 1977REM DISCID 360C2705REM COMMENT "ExactAudioCopy v1.0b1"PERFORMER "Oscar Peterson"TITLE "Montreux'77"FILE "01 - Ali And Frazier.wav" WAVE TRACK 01 AUDIO TITLE "Ali And Frazier" PERFORMER "Oscar Peterson" INDEX 01 00:00:00FILE "02 - If I Were A Bell.wav" WAVE TRACK 02 AUDIO TITLE "If I Were A Bell" PERFORMER "Oscar Peterson" INDEX 01 00:00:00 TRACK 03 AUDIO TITLE "Things Ain't What They Used To Be" PERFORMER "Oscar Peterson" INDEX 00 10:51:16FILE "03 - Things Ain't What They Used To Be.wav" WAVE INDEX 01 00:00:00FILE "04 - Just In Time.wav" WAVE TRACK 04 AUDIO TITLE "Just In Time" PERFORMER "Oscar Peterson" INDEX 01 00:00:00 TRACK 05 AUDIO TITLE "Bye Bye Blues" PERFORMER "Oscar Peterson" INDEX 00 10:07:16FILE "05 - Bye Bye Blues.wav" WAVE INDEX 01 00:00:00


Трекер:  [ 14-Фев-2012 09:54 ]

  

Скачать .torrent

Размер .torrent файла 15 KB


Размер: 353 MB
Хэш (hash) релиза: 7fc978a20c4b26fde7c983bd8b36f59c8fb35a6b

Еще никто не оставлял запись к записи скачать торрент Oscar Peterson - Jam Montreux 77 - 1989, FLAC . Будь первым!

!Обратная связь