Скачать через торрент музыку John Scofield - East meets west - 1977 бесплатно без регистрации torrent

Если у вас наблюдаются проблемы со скриншотами, переходом по ссылками, скачиванием торрентов - проблемы в блокировщике рекламы AdBlock. #хорошегоДня!


Статистика раздачи
Размер:  188 MB   |    Зарегистрирован:  5 лет 8 месяцев   |    .torrent скачан:  42 раза   |   
Раздают:  1  
   
Загрузка...
 
Автор Сообщение

Umakiro

avatar Umakiro


John Scofield / East meets west
Жанр: Jazz /Post Bop
Страна-производитель диска: West Germany
Год издания диска: 1977 (1987)
Издатель (лейбл): Bellaphon
Номер по каталогу: BKH 533 CD
Страна: USA
Аудио кодек: FLAC (*.flac)
Тип рипа: tracks+.cue
Битрейт аудио: lossless
Продолжительность: 38:17
Источник (релизер): chicopicho
Наличие сканов в содержимом раздачи: да
Треклист:

01. Public domain (8:21)
02. Amy (Who else) (3:26)
03. Blues for Okinawa (6:36)
04. V (9:52)
05. Un toco loco - Ballet (5:18)
06. Ida Lupino (4:47)
 
Exact Audio Copy V0.99 prebeta 4 from 23. January 2008

EAC extraction logfile from 14. November 2010, 23:33

John Scofield / East meets west

Used drive : HL-DT-STDVDRAM GSA-H42N Adapter: 0 ID: 1

Read mode : SecureUtilize accurate stream : YesDefeat audio cache : YesMake use of C2 pointers : No

Read offset correction : 667Overread into Lead-In and Lead-Out : NoFill up missing offset samples with silence : YesDelete leading and trailing silent blocks : NoNull samples used in CRC calculations : YesUsed interface : Native Win32 interface for Win NT & 2000Gap handling : Appended to previous track

Used output format : User Defined EncoderSelected bitrate : 320 kBit/sQuality : HighAdd ID3 tag : NoCommand line compressor : C:\Program Files\Exact Audio Copy\Flac\flac.exeAdditional command line options : -8 -V -T "ARTIST=%a" -T "TITLE=%t" -T "ALBUM=%g" -T "DATE=%y" -T "TRACKNUMBER=%n" -T "GENRE=%m" -T "COMMENT=EAC Flac 1.1.4 -8" %s

TOC of the extracted CD

Track | Start | Length | Start sector | End sector --------------------------------------------------------- 1 | 0:00.00 | 8:20.38 | 0 | 37537 2 | 8:20.38 | 3:26.00 | 37538 | 52987 3 | 11:46.38 | 6:36.00 | 52988 | 82687 4 | 18:22.38 | 9:52.00 | 82688 | 127087 5 | 28:14.38 | 5:18.00 | 127088 | 150937 6 | 33:32.38 | 4:46.47 | 150938 | 172434

Track 1

Filename D:\My Rips\John Scofield - 1987 - East meets west\01 - Public domain .wav

Pre-gap length 0:00:02.00

Peak level 94.1 % Track quality 100.0 % Test CRC 713D71C6 Copy CRC 713D71C6 Accurately ripped (confidence 4) [F013F9CF] Copy OK

Track 2

Filename D:\My Rips\John Scofield - 1987 - East meets west\02 - Amy (Who else) .wav

Pre-gap length 0:00:01.86

Peak level 84.0 % Track quality 100.0 % Test CRC 70EE3CFA Copy CRC 70EE3CFA Accurately ripped (confidence 5) [829B7181] Copy OK

Track 3

Filename D:\My Rips\John Scofield - 1987 - East meets west\03 - Blues for Okinawa .wav

Pre-gap length 0:00:01.86

Peak level 96.8 % Track quality 100.0 % Test CRC 6E629B6B Copy CRC 6E629B6B Accurately ripped (confidence 5) [B9F075EB] Copy OK

Track 4

Filename D:\My Rips\John Scofield - 1987 - East meets west\04 - V .wav

Pre-gap length 0:00:01.53

Peak level 94.2 % Track quality 100.0 % Test CRC C996A0CC Copy CRC C996A0CC Accurately ripped (confidence 5) [5CADEE22] Copy OK

Track 5

Filename D:\My Rips\John Scofield - 1987 - East meets west\05 - Un toco loco - Ballet .wav

Pre-gap length 0:00:01.36

Peak level 100.0 % Track quality 100.0 % Test CRC 349B9697 Copy CRC 349B9697 Accurately ripped (confidence 5) [9A031064] Copy OK

Track 6

Filename D:\My Rips\John Scofield - 1987 - East meets west\06 - Ida Lupino .wav

Pre-gap length 0:00:01.57

Peak level 68.2 % Track quality 100.0 % Test CRC 0D2EBEAE Copy CRC 0D2EBEAE Accurately ripped (confidence 5) [38250F49] Copy OK

All tracks accurately ripped

No errors occurred

End of status report
 
REM GENRE JazzREM DATE 1987REM DISCID 3B08FB06REM COMMENT "ExactAudioCopy v0.99pb4"PERFORMER "John Scofield"TITLE "East meets west"FILE "01 - Public domain .flac" WAVE TRACK 01 AUDIO TITLE "Public domain" PERFORMER "John Scofield" INDEX 01 00:00:00 TRACK 02 AUDIO TITLE "Amy (Who else)" PERFORMER "John Scofield" INDEX 00 08:18:48FILE "02 - Amy (Who else) .flac" WAVE INDEX 01 00:00:00 TRACK 03 AUDIO TITLE "Blues for Okinawa" PERFORMER "John Scofield" INDEX 00 03:24:10FILE "03 - Blues for Okinawa .flac" WAVE INDEX 01 00:00:00 TRACK 04 AUDIO TITLE "V" PERFORMER "John Scofield" INDEX 00 06:34:35FILE "04 - V .flac" WAVE INDEX 01 00:00:00 TRACK 05 AUDIO TITLE "Un toco loco - Ballet" PERFORMER "John Scofield" INDEX 00 09:50:48FILE "05 - Un toco loco - Ballet .flac" WAVE INDEX 01 00:00:00 TRACK 06 AUDIO TITLE "Ida Lupino" PERFORMER "John Scofield" INDEX 00 05:16:32FILE "06 - Ida Lupino .flac" WAVE INDEX 01 00:00:00
Personnel:

John Scofield - guitar
Clint Houston - bass
Motohiko Hino - drums
Terumasa Hino - trumpet on tracks 1 & 4


Трекер:  [ 14-Фев-2012 09:53 ]

  

Скачать .torrent

Размер .torrent файла 16 KB


Размер: 188 MB
Хэш (hash) релиза: 57fbc9722c45325e30d9803759bb911d39e50e6f

Еще никто не оставлял запись к записи скачать торрент John Scofield - East meets west - 1977 . Будь первым!

!Обратная связь