Скачать через торрент музыку Miles Davis And Sonny Stitt - Olympia бесплатно без регистрации torrent

Если у вас наблюдаются проблемы со скриншотами, переходом по ссылками, скачиванием торрентов - проблемы в блокировщике рекламы AdBlock. #хорошегоДня!


Статистика раздачи
Размер:  726 MB   |    Зарегистрирован:  5 лет 8 месяцев   |    .torrent скачан:  43 раза   |   
Раздают:  1  
   
Загрузка...
 
Автор Сообщение

Umakiro

avatar Umakiro


•Miles Davis And Sonny Stitt - Olympia (Paris Jazz Concert, 2CD){1960}•

Жанр: Hard Bop, Mainstream Jazz
Страна-производитель диска: Россия
Год издания диска: 1999
Аудиокодек: FLAC (*.flac)
Тип рипа: tracks+.cue
Битрейт аудио: lossless
Продолжительность: 01:58:15
Источник (релизер): Рипы с дисков.
Наличие сканов в содержимом раздачи: да
Треклист:

01. Walkin'
02. Autumn Leaves
03. Four
04. Unidentified
05. Round About Midnight
06. No Blues
07. The Theme
 
Exact Audio Copy V1.0 beta 3 from 29. August 2011

Отчёт EAC об извлечении, выполненном 12. февраля 2012, 14:46

Miles Davis / Miles Davis & Sonny Stitt (Olympia, CD1)

Дисковод: TSSTcorpCDDVDW SH-S223C Adapter: 5 ID: 0

Режим чтения : ДостоверностьИспользование точного потока : ДаОтключение кэша аудио : ДаИспользование указателей C2 : Нет

Коррекция смещения при чтении : 697Способность читать области Lead-in и Lead-out : НетЗаполнение пропущенных сэмплов тишиной : ДаУдаление блоков с тишиной в начале и конце : НетПри вычислениях CRC использовались нулевые сэмплы : ДаИнтерфейс : Установленный внешний ASPI-интерфейсОбработка зазоров : Добавлено к предыдущему треку

Выходной формат : Пользовательский кодировщикВыбранный битрейт : 128 kBit/sКачество : ВысокийДобавление ID3-тега : НетУтилита сжатия : C:\Program Files\Exact Audio Copy\Flac\flac.exeДополнительные параметры : -V -8 -T "Genre=%genre%" -T "Artist=%artist%" -T "Title=%title%" -T "Album=%albumtitle%" -T "Date=%year%" -T "Tracknumber=%tracknr%" -T "Comment=%comment%" %source%

TOC извлечённого CD

Трек | Старт | Длительность | Начальный сектор | Конечный сектор --------------------------------------------------------------------- 1 | 0:00.00 | 11:45.45 | 0 | 52919 2 | 11:45.45 | 13:12.45 | 52920 | 112364 3 | 24:58.15 | 8:46.65 | 112365 | 151879 4 | 33:45.05 | 5:05.22 | 151880 | 174776 5 | 38:50.27 | 5:41.08 | 174777 | 200359 6 | 44:31.35 | 14:32.45 | 200360 | 265804 7 | 59:04.05 | 0:49.70 | 265805 | 269549

Трек 1

Имя файла C:\Шахматы\1999.Miles Davis And Sonny Stitt - Olympia (Paris Jazz Concert, 2CD))\CD1\01. Walkin'.wav

Длина предзазора 0:00:02.00

Пиковый уровень 100.0 % Скорость извлечения 2.4 X Качество трека 100.0 % CRC теста FD1D3DA9 CRC копии FD1D3DA9 Трек не обнаружен в базе AccurateRip Копирование... OK

Трек 2

Имя файла C:\Шахматы\1999.Miles Davis And Sonny Stitt - Olympia (Paris Jazz Concert, 2CD))\CD1\02. Autumn Leaves.wav

Пиковый уровень 97.7 % Скорость извлечения 3.1 X Качество трека 100.0 % CRC теста C0664538 CRC копии C0664538 Трек не обнаружен в базе AccurateRip Копирование... OK

Трек 3

Имя файла C:\Шахматы\1999.Miles Davis And Sonny Stitt - Olympia (Paris Jazz Concert, 2CD))\CD1\03. Four.wav

Пиковый уровень 98.6 % Скорость извлечения 3.3 X Качество трека 99.9 % CRC теста B6617E7F CRC копии B6617E7F Трек не обнаружен в базе AccurateRip Копирование... OK

Трек 4

Имя файла C:\Шахматы\1999.Miles Davis And Sonny Stitt - Olympia (Paris Jazz Concert, 2CD))\CD1\04. Unidentified.wav

Пиковый уровень 100.0 % Скорость извлечения 3.6 X Качество трека 100.0 % CRC теста 3CA98986 CRC копии 3CA98986 Трек не обнаружен в базе AccurateRip Копирование... OK

Трек 5

Имя файла C:\Шахматы\1999.Miles Davis And Sonny Stitt - Olympia (Paris Jazz Concert, 2CD))\CD1\05. Round About Midnight.wav

Пиковый уровень 70.6 % Скорость извлечения 3.7 X Качество трека 100.0 % CRC теста A2FD2AE6 CRC копии A2FD2AE6 Трек не обнаружен в базе AccurateRip Копирование... OK

Трек 6

Имя файла C:\Шахматы\1999.Miles Davis And Sonny Stitt - Olympia (Paris Jazz Concert, 2CD))\CD1\06. No Blues.wav

Пиковый уровень 100.0 % Скорость извлечения 4.3 X Качество трека 100.0 % CRC теста 13ADDA9B CRC копии 13ADDA9B Трек не обнаружен в базе AccurateRip Копирование... OK

Трек 7

Имя файла C:\Шахматы\1999.Miles Davis And Sonny Stitt - Olympia (Paris Jazz Concert, 2CD))\CD1\07. The Theme.wav

Пиковый уровень 90.3 % Скорость извлечения 2.6 X Качество трека 100.0 % CRC теста FB973809 CRC копии FB973809 Трек не обнаружен в базе AccurateRip Копирование... OK

Ни одного трека нет в базе AccurateRip

Ошибок не произошло

Конец отчёта

==== Контрольная сумма отчёта 5F4DD9F6FC868BAC7335355808ECAAB02F5FE7EB61E53D95389E28EB094D5288 ====
 
REM GENRE JazzREM DATE 1999REM DISCID 4F0E0A07REM COMMENT "ExactAudioCopy v1.0b3"PERFORMER "Miles Davis"TITLE "Miles Davis & Sonny Stitt (Olympia, CD1)"FILE "01. Walkin'.wav" WAVE TRACK 01 AUDIO TITLE "Walkin'" PERFORMER "Miles Davis" FLAGS DCP INDEX 01 00:00:00FILE "02. Autumn Leaves.wav" WAVE TRACK 02 AUDIO TITLE "Autumn Leaves" PERFORMER "Miles Davis" FLAGS DCP INDEX 01 00:00:00FILE "03. Four.wav" WAVE TRACK 03 AUDIO TITLE "Four" PERFORMER "Miles Davis" FLAGS DCP INDEX 01 00:00:00FILE "04. Unidentified.wav" WAVE TRACK 04 AUDIO TITLE "Unidentified" PERFORMER "Miles Davis" FLAGS DCP INDEX 01 00:00:00FILE "05. Round About Midnight.wav" WAVE TRACK 05 AUDIO TITLE "Round About Midnight" PERFORMER "Miles Davis" FLAGS DCP INDEX 01 00:00:00FILE "06. No Blues.wav" WAVE TRACK 06 AUDIO TITLE "No Blues" PERFORMER "Miles Davis" FLAGS DCP INDEX 01 00:00:00FILE "07. The Theme.wav" WAVE TRACK 07 AUDIO TITLE "The Theme" PERFORMER "Miles Davis" FLAGS DCP INDEX 01 00:00:00
Треклист:

01. Walkin'
02. If I Were A Bell
03. Fran Dance
04. Two Bass Hit
05. All Of You
06. So What
07. The Theme
 
Exact Audio Copy V1.0 beta 3 from 29. August 2011

Отчёт EAC об извлечении, выполненном 12. февраля 2012, 15:57

Miles Davis And Sonny Stitt / (Olympia, CD2)

Дисковод: TSSTcorpCDDVDW SH-S223C Adapter: 5 ID: 0

Режим чтения : ДостоверностьИспользование точного потока : ДаОтключение кэша аудио : ДаИспользование указателей C2 : Нет

Коррекция смещения при чтении : 697Способность читать области Lead-in и Lead-out : НетЗаполнение пропущенных сэмплов тишиной : ДаУдаление блоков с тишиной в начале и конце : НетПри вычислениях CRC использовались нулевые сэмплы : ДаИнтерфейс : Установленный внешний ASPI-интерфейсОбработка зазоров : Добавлено к предыдущему треку

Выходной формат : Пользовательский кодировщикВыбранный битрейт : 128 kBit/sКачество : ВысокийДобавление ID3-тега : НетУтилита сжатия : C:\Program Files\Exact Audio Copy\Flac\flac.exeДополнительные параметры : -V -8 -T "Genre=%genre%" -T "Artist=%artist%" -T "Title=%title%" -T "Album=%albumtitle%" -T "Date=%year%" -T "Tracknumber=%tracknr%" -T "Comment=%comment%" %source%

TOC извлечённого CD

Трек | Старт | Длительность | Начальный сектор | Конечный сектор --------------------------------------------------------------------- 1 | 0:00.33 | 9:36.45 | 33 | 43277 2 | 9:37.03 | 11:59.32 | 43278 | 97234 3 | 21:36.35 | 7:24.03 | 97235 | 130537 4 | 29:00.38 | 5:49.55 | 130538 | 156767 5 | 34:50.18 | 13:03.42 | 156768 | 215534 6 | 47:53.60 | 9:27.20 | 215535 | 258079 7 | 57:21.05 | 1:01.28 | 258080 | 262682

Трек 1

Имя файла C:\Шахматы\1999.Miles Davis And Sonny Stitt - Olympia (Paris Jazz Concert, 2CD))\CD2\01. Walkin'.wav

Длина предзазора 0:00:02.33

Пиковый уровень 100.0 % Скорость извлечения 2.3 X Качество трека 100.0 % CRC теста 064E05C5 CRC копии 064E05C5 Точность не определена (достоверность 7) [1939B7F5], AccurateRip вернул [2B6F3CCF] (AR v2) Копирование... OK

Трек 2

Имя файла C:\Шахматы\1999.Miles Davis And Sonny Stitt - Olympia (Paris Jazz Concert, 2CD))\CD2\02. If I Were A Bell.wav

Пиковый уровень 95.3 % Скорость извлечения 2.8 X Качество трека 99.9 % CRC теста 25449439 CRC копии 25449439 Точность не определена (достоверность 7) [79B00392], AccurateRip вернул [DA359A4D] (AR v2) Копирование... OK

Трек 3

Имя файла C:\Шахматы\1999.Miles Davis And Sonny Stitt - Olympia (Paris Jazz Concert, 2CD))\CD2\03. Fran Dance.wav

Пиковый уровень 90.1 % Скорость извлечения 3.3 X Качество трека 100.0 % CRC теста B87E8B0B CRC копии B87E8B0B Точность не определена (достоверность 7) [C05021E2], AccurateRip вернул [E13EB88F] (AR v2) Копирование... OK

Трек 4

Имя файла C:\Шахматы\1999.Miles Davis And Sonny Stitt - Olympia (Paris Jazz Concert, 2CD))\CD2\04. Two Bass Hit.wav

Пиковый уровень 91.0 % Скорость извлечения 3.5 X Качество трека 100.0 % CRC теста E44EEF39 CRC копии E44EEF39 Точность не определена (достоверность 7) [E7CDC069], AccurateRip вернул [50777F01] (AR v2) Копирование... OK

Трек 5

Имя файла C:\Шахматы\1999.Miles Davis And Sonny Stitt - Olympia (Paris Jazz Concert, 2CD))\CD2\05. All Of You.wav

Пиковый уровень 91.2 % Скорость извлечения 4.0 X Качество трека 100.0 % CRC теста 1CD985B0 CRC копии 1CD985B0 Точность не определена (достоверность 7) [473BD087], AccurateRip вернул [FC4050DD] (AR v2) Копирование... OK

Трек 6

Имя файла C:\Шахматы\1999.Miles Davis And Sonny Stitt - Olympia (Paris Jazz Concert, 2CD))\CD2\06. So What.wav

Пиковый уровень 83.0 % Скорость извлечения 4.2 X Качество трека 100.0 % CRC теста C4C33C90 CRC копии C4C33C90 Точность не определена (достоверность 6) [BA69B874], AccurateRip вернул [4B74EBC8] (AR v2) Копирование... OK

Трек 7

Имя файла C:\Шахматы\1999.Miles Davis And Sonny Stitt - Olympia (Paris Jazz Concert, 2CD))\CD2\07. The Theme.wav

Пиковый уровень 64.0 % Скорость извлечения 2.8 X Качество трека 100.0 % CRC теста F7719C2B CRC копии F7719C2B Точность не определена (достоверность 6) [F15C50B7], AccurateRip вернул [F89333D7] (AR v2) Копирование... OK

Ни один трек не прошёл проверки на точностьВ вашей базе может быть иной вариант штамповки диска

Ошибок не произошло

Конец отчёта

==== Контрольная сумма отчёта D02C4B2BD119251DB007E8F168A30FE8F4147BA63A87117CB41F06E0D1CF5FA8 ====
 
REM GENRE JazzREM DATE 1999REM DISCID 6A0DAE07REM COMMENT "ExactAudioCopy v1.0b3"PERFORMER "Miles Davis And Sonny Stitt"TITLE "(Olympia, CD2)"FILE "01. Walkin'.wav" WAVE TRACK 01 AUDIO TITLE "Walkin'" PERFORMER "Miles Davis And Sonny Stitt" PREGAP 00:00:33 INDEX 01 00:00:00FILE "02. If I Were A Bell.wav" WAVE TRACK 02 AUDIO TITLE "If I Were A Bell" PERFORMER "Miles Davis And Sonny Stitt" INDEX 01 00:00:00FILE "03. Fran Dance.wav" WAVE TRACK 03 AUDIO TITLE "Fran Dance" PERFORMER "Miles Davis And Sonny Stitt" INDEX 01 00:00:00FILE "04. Two Bass Hit.wav" WAVE TRACK 04 AUDIO TITLE "Two Bass Hit" PERFORMER "Miles Davis And Sonny Stitt" INDEX 01 00:00:00FILE "05. All Of You.wav" WAVE TRACK 05 AUDIO TITLE "All Of You" PERFORMER "Miles Davis And Sonny Stitt" INDEX 01 00:00:00FILE "06. So What.wav" WAVE TRACK 06 AUDIO TITLE "So What" PERFORMER "Miles Davis And Sonny Stitt" INDEX 01 00:00:00FILE "07. The Theme.wav" WAVE TRACK 07 AUDIO TITLE "The Theme" PERFORMER "Miles Davis And Sonny Stitt" INDEX 01 00:00:00
Personnel:Miles Davis - tp
Sonny Stitt - ts
Wynton Kelly - p
Paul Chambers - b
Jimmy Cobb - dr


Трекер:  [ 14-Фев-2012 09:52 ]

  

Скачать .torrent

Размер .torrent файла 16 KB


Размер: 726 MB
Хэш (hash) релиза: 13d231ace1a8a462d04cdfc72562d79b9e42b60b

Еще никто не оставлял запись к записи скачать торрент Miles Davis And Sonny Stitt - Olympia . Будь первым!

!Обратная связь