Скачать через торрент музыку Fred Hersch Trio — The Fred Hersch Trio Plays... — 1994, FLAC бесплатно без регистрации torrent

Если у вас наблюдаются проблемы со скриншотами, переходом по ссылками, скачиванием торрентов - проблемы в блокировщике рекламы AdBlock. #хорошегоДня!


Статистика раздачи
Размер:  353 MB   |    Зарегистрирован:  5 лет 8 месяцев   |    .torrent скачан:  34 раза   |   
Раздают:  1  
   
Загрузка...
 
Автор Сообщение

Umakiro

avatar Umakiro


Fred Hersch Trio — The Fred Hersch Trio Plays...

Жанр: Post-Bop
Год издания диска: 1994
Лейбл: Chesky Records
Номер по каталогу: JD116
Аудио кодек: FLAC (*.flac)
Тип рипа: image+.cue
Битрейт аудио: lossless
Продолжительность: 63:19
Риппер: intothe
Сканы есть

Треклист:
01. Milestones (3:51)
02. Iris (6:14)
03. Played Twice (3:22)
04. Con Alma (6:00)
05. Mood Indigo (5:35)
06. Speak Like A Child (6:09)
07. Evanessence (5:12)
08. Think Of One (5:30)
09. Daydream (8:06)
10. Forerunner (3:12)
11. Moment's Notice (3:08)
12. Doxy (7:00)

Personnel:
Fred Hersch - p
Drew Gress - b
Tom Raney - d

Rec.: MasterSound Studios, Astoria Queens, NY, February 16 & 17, 1994.
 
 
Exact Audio Copy V0.99 prebeta 5 from 4. May 2009

EAC extraction logfile from 31. March 2011, 15:40

Fred Hersch Trio / The Fred Hersch Trio Plays...

Used drive : _NEC DVD_RW ND-3500AG Adapter: 0 ID: 0

Read mode : SecureUtilize accurate stream : YesDefeat audio cache : YesMake use of C2 pointers : No

Read offset correction : 48Overread into Lead-In and Lead-Out : NoFill up missing offset samples with silence : YesDelete leading and trailing silent blocks : NoNull samples used in CRC calculations : YesUsed interface : Native Win32 interface for Win NT & 2000

Used output format : User Defined EncoderSelected bitrate : 768 kBit/sQuality : HighAdd ID3 tag : NoCommand line compressor : C:\Program Files\Exact Audio Copy\FLAC\FLAC.EXEAdditional command line options : -6 -V -T "ARTIST=%a" -T "TITLE=%t" -T "ALBUM=%g" -T "DATE=%y" -T "TRACKNUMBER=%n" -T "GENRE=%m" -T "COMMENT=%e" %s -o %d

TOC of the extracted CD

Track | Start | Length | Start sector | End sector --------------------------------------------------------- 1 | 0:00.30 | 3:51.08 | 30 | 17362 2 | 3:51.38 | 6:14.02 | 17363 | 45414 3 | 10:05.40 | 3:22.12 | 45415 | 60576 4 | 13:27.52 | 6:00.34 | 60577 | 87610 5 | 19:28.11 | 5:35.01 | 87611 | 112736 6 | 25:03.12 | 6:09.20 | 112737 | 140431 7 | 31:12.32 | 5:11.69 | 140432 | 163825 8 | 36:24.26 | 5:30.10 | 163826 | 188585 9 | 41:54.36 | 8:05.50 | 188586 | 225010 10 | 50:00.11 | 3:11.40 | 225011 | 239375 11 | 53:11.51 | 3:08.10 | 239376 | 253485 12 | 56:19.61 | 6:59.69 | 253486 | 284979

Range status and errors

Selected range

Filename J:\eMusic\Rip\Fred Hersch Trio - The Fred Hersch Trio Plays....wav

Peak level 91.5 % Range quality 99.9 % Test CRC 669DD27A Copy CRC 669DD27A Copy OK

No errors occurred

AccurateRip summary

Track 1 cannot be verified as accurate (confidence 12) [90787884], AccurateRip returned [3A2344E2]Track 2 cannot be verified as accurate (confidence 12) [447F40F3], AccurateRip returned [ED557605]Track 3 cannot be verified as accurate (confidence 12) [165336D8], AccurateRip returned [7FB9E9D4]Track 4 cannot be verified as accurate (confidence 12) [C610E874], AccurateRip returned [EE9D4097]Track 5 cannot be verified as accurate (confidence 12) [0D9C3CA5], AccurateRip returned [9D583E72]Track 6 cannot be verified as accurate (confidence 12) [C3C8849E], AccurateRip returned [F0E2F1A8]Track 7 cannot be verified as accurate (confidence 12) [795B038D], AccurateRip returned [E22F260D]Track 8 cannot be verified as accurate (confidence 12) [0F62D562], AccurateRip returned [0A901A46]Track 9 cannot be verified as accurate (confidence 12) [8986EB18], AccurateRip returned [B85EC549]Track 10 cannot be verified as accurate (confidence 12) [91CCAD34], AccurateRip returned [A05C179B]Track 11 cannot be verified as accurate (confidence 12) [FDD48C7D], AccurateRip returned [2BC7F953]Track 12 cannot be verified as accurate (confidence 12) [F289A541], AccurateRip returned [12E2C96D]

No tracks could be verified as accurateYou may have a different pressing from the one(s) in the database

End of status report
 
REM GENRE JazzREM DATE 1994REM DISCID 930ED70CREM COMMENT "ExactAudioCopy v0.99pb5"PERFORMER "Fred Hersch Trio"TITLE "The Fred Hersch Trio Plays..."FILE "Fred Hersch Trio - The Fred Hersch Trio Plays....flac" WAVE TRACK 01 AUDIO TITLE "Milestones" PERFORMER "Fred Hersch Trio" INDEX 00 00:00:00 INDEX 01 00:00:30 TRACK 02 AUDIO TITLE "Iris" PERFORMER "Fred Hersch Trio" INDEX 01 03:51:38 TRACK 03 AUDIO TITLE "Played Twice" PERFORMER "Fred Hersch Trio" INDEX 01 10:05:40 TRACK 04 AUDIO TITLE "Con Alma" PERFORMER "Fred Hersch Trio" INDEX 01 13:27:52 TRACK 05 AUDIO TITLE "Mood Indigo" PERFORMER "Fred Hersch Trio" INDEX 01 19:28:11 TRACK 06 AUDIO TITLE "Speak Like A Child" PERFORMER "Fred Hersch Trio" INDEX 01 25:03:12 TRACK 07 AUDIO TITLE "Evanessence" PERFORMER "Fred Hersch Trio" INDEX 01 31:12:32 TRACK 08 AUDIO TITLE "Think Of One" PERFORMER "Fred Hersch Trio" INDEX 01 36:24:26 TRACK 09 AUDIO TITLE "Daydream" PERFORMER "Fred Hersch Trio" INDEX 01 41:54:36 TRACK 10 AUDIO TITLE "Forerunner" PERFORMER "Fred Hersch Trio" INDEX 01 50:00:11 TRACK 11 AUDIO TITLE "Moment's Notice" PERFORMER "Fred Hersch Trio" INDEX 01 53:11:51 TRACK 12 AUDIO TITLE "Doxy" PERFORMER "Fred Hersch Trio" INDEX 01 56:19:61


Трекер:  [ 14-Фев-2012 09:52 ]

  

Скачать .torrent

Размер .torrent файла 8 KB


Размер: 353 MB
Хэш (hash) релиза: 2ef62e14543605de05c4470a9cb90a6d79920451

Еще никто не оставлял запись к записи скачать торрент Fred Hersch Trio — The Fred Hersch Trio Plays... — 1994, FLAC . Будь первым!

!Обратная связь