Скачать через торрент музыку John Coltrane - The Impulse! Albums: Volume One - 2007, FLAC бесплатно без регистрации torrent

Если у вас наблюдаются проблемы со скриншотами, переходом по ссылками, скачиванием торрентов - проблемы в блокировщике рекламы AdBlock. #хорошегоДня!


Статистика раздачи
Размер:  1.15 GB   |    Зарегистрирован:  5 лет 8 месяцев   |    .torrent скачан:  41 раз   |   
Раздают:  1  
   
Загрузка...
 
Автор Сообщение

Umakiro

avatar Umakiro


John Coltrane / The Impulse! Albums: Volume One



Жанр: Bop, Hard Bop, Post-Bop, Avant-Garde
Страна-производитель дисков: USA
Год издания дисков: 2007
Издатель (лейбл): The Impulse!
Номер по каталогу: B0010 135-02
Страна: USA
Аудиокодек: FLAC (*.flac)
Тип рипа: tracks+.cue
Битрейт аудио: lossless
Продолжительность: 2:57:37
Источник: waffles.fm
Наличие сканов в содержимом раздачи: нет


Time: 32:18

Трэклист:

01. Say It (Over And Over Again) [4:18]
02. You Don't Know What Love Is [5:15]
03. Too Young To Go Steady [4:24]
04. All Or Nothing At All [3:39]
05. I Wish I Knew [4:54]
06. What's New [3:47]
07. It's Easy To Remember [2:49]
08. Nancy (With The Laughing Face) [3:11]
 
Exact Audio Copy V0.99 prebeta 5 from 4. May 2009

EAC extraction logfile from 26. June 2009, 10:42

The John Coltrane Quartet / Ballads

Used drive : HL-DT-STDVDRAM GSA-T20N Adapter: 1 ID: 0

Read mode : SecureUtilize accurate stream : YesDefeat audio cache : YesMake use of C2 pointers : No

Read offset correction : 667Overread into Lead-In and Lead-Out : NoFill up missing offset samples with silence : YesDelete leading and trailing silent blocks : NoNull samples used in CRC calculations : YesUsed interface : Native Win32 interface for Win NT & 2000Gap handling : Appended to previous track

Used output format : User Defined EncoderSelected bitrate : 320 kBit/sQuality : HighAdd ID3 tag : NoCommand line compressor : C:\Program Files\Exact Audio Copy\Flac\flac.exeAdditional command line options : -V -8 -T "artist=%a" -T "title=%t" -T "album=%g" -T "date=%y" -T "tracknumber=%n" -T "genre=%m" %s

TOC of the extracted CD

Track | Start | Length | Start sector | End sector --------------------------------------------------------- 1 | 0:00.00 | 4:18.26 | 0 | 19375 2 | 4:18.26 | 5:15.29 | 19376 | 43029 3 | 9:33.55 | 4:23.40 | 43030 | 62794 4 | 13:57.20 | 3:39.05 | 62795 | 79224 5 | 17:36.25 | 4:54.35 | 79225 | 101309 6 | 22:30.60 | 3:47.23 | 101310 | 118357 7 | 26:18.08 | 2:49.18 | 118358 | 131050 8 | 29:07.26 | 3:10.60 | 131051 | 145360

Track 1

Filename C:\Users\Franзois\Desktop\Music\The Impulse! Albums Volume One\The John Coltrane Quartet - 1962 - Ballads\01 - Say It (Over And Over Again).wav

Pre-gap length 0:00:02.00

Peak level 98.3 % Track quality 99.9 % Test CRC 125CC898 Copy CRC 125CC898 Accurately ripped (confidence 17) [14A138DD] Copy OK

Track 2

Filename C:\Users\Franзois\Desktop\Music\The Impulse! Albums Volume One\The John Coltrane Quartet - 1962 - Ballads\02 - You Don't Know What Love Is.wav

Pre-gap length 0:00:02.49

Peak level 97.0 % Track quality 100.0 % Test CRC 4818A421 Copy CRC 4818A421 Accurately ripped (confidence 16) [17E81D9E] Copy OK

Track 3

Filename C:\Users\Franзois\Desktop\Music\The Impulse! Albums Volume One\The John Coltrane Quartet - 1962 - Ballads\03 - Too Young To Go Steady.wav

Pre-gap length 0:00:02.93

Peak level 85.3 % Track quality 100.0 % Test CRC 73E3ABF2 Copy CRC 73E3ABF2 Accurately ripped (confidence 17) [9189B876] Copy OK

Track 4

Filename C:\Users\Franзois\Desktop\Music\The Impulse! Albums Volume One\The John Coltrane Quartet - 1962 - Ballads\04 - All Or Nothing At All.wav

Pre-gap length 0:00:02.48

Peak level 99.5 % Track quality 100.0 % Test CRC 7B36A5CD Copy CRC 7B36A5CD Accurately ripped (confidence 17) [B2763642] Copy OK

Track 5

Filename C:\Users\Franзois\Desktop\Music\The Impulse! Albums Volume One\The John Coltrane Quartet - 1962 - Ballads\05 - I Wish I Knew.wav

Pre-gap length 0:00:03.90

Peak level 88.9 % Track quality 100.0 % Test CRC D1D00BF5 Copy CRC D1D00BF5 Accurately ripped (confidence 17) [266246FD] Copy OK

Track 6

Filename C:\Users\Franзois\Desktop\Music\The Impulse! Albums Volume One\The John Coltrane Quartet - 1962 - Ballads\06 - What's New.wav

Pre-gap length 0:00:03.48

Peak level 99.5 % Track quality 100.0 % Test CRC E1E024A4 Copy CRC E1E024A4 Accurately ripped (confidence 17) [A2B9B61B] Copy OK

Track 7

Filename C:\Users\Franзois\Desktop\Music\The Impulse! Albums Volume One\The John Coltrane Quartet - 1962 - Ballads\07 - It's Easy To Remember.wav

Pre-gap length 0:00:02.84

Peak level 99.9 % Track quality 100.0 % Test CRC 6F872E2E Copy CRC 6F872E2E Accurately ripped (confidence 17) [FB6464CC] Copy OK

Track 8

Filename C:\Users\Franзois\Desktop\Music\The Impulse! Albums Volume One\The John Coltrane Quartet - 1962 - Ballads\08 - Nancy (With The Laughing Face).wav

Pre-gap length 0:00:03.56

Peak level 69.3 % Track quality 100.0 % Test CRC ED228202 Copy CRC ED228202 Accurately ripped (confidence 17) [DD3D4FEF] Copy OK

All tracks accurately ripped

No errors occurred

End of status report
 
REM GENRE JazzREM DATE 1962REM DISCID 6B079208REM COMMENT "ExactAudioCopy v0.99pb5"PERFORMER "The John Coltrane Quartet"TITLE "Ballads"FILE "01 - Say It (Over And Over Again).wav" WAVE TRACK 01 AUDIO TITLE "Say It (Over And Over Again)" INDEX 01 00:00:00 TRACK 02 AUDIO TITLE "You Don't Know What Love Is" INDEX 00 04:15:64FILE "02 - You Don't Know What Love Is.wav" WAVE INDEX 01 00:00:00 TRACK 03 AUDIO TITLE "Too Young To Go Steady" INDEX 00 05:12:34FILE "03 - Too Young To Go Steady.wav" WAVE INDEX 01 00:00:00 TRACK 04 AUDIO TITLE "All Or Nothing At All" INDEX 00 04:21:04FILE "04 - All Or Nothing At All.wav" WAVE INDEX 01 00:00:00 TRACK 05 AUDIO TITLE "I Wish I Knew" INDEX 00 03:35:12FILE "05 - I Wish I Knew.wav" WAVE INDEX 01 00:00:00 TRACK 06 AUDIO TITLE "What's New" INDEX 00 04:50:74FILE "06 - What's New.wav" WAVE INDEX 01 00:00:00 TRACK 07 AUDIO TITLE "It's Easy To Remember" INDEX 00 03:44:35FILE "07 - It's Easy To Remember.wav" WAVE INDEX 01 00:00:00 TRACK 08 AUDIO TITLE "Nancy (With The Laughing Face)" INDEX 00 02:45:51FILE "08 - Nancy (With The Laughing Face).wav" WAVE INDEX 01 00:00:00


Time: 33:51

Трэклист:

01. Africa [16:29]
02. Greensleeves [10:00]
03. Blues Minor [7:22]
 
Exact Audio Copy V0.99 prebeta 5 from 4. May 2009

EAC extraction logfile from 26. June 2009, 10:14

The John Coltrane Quartet / Africa/Brass

Used drive : HL-DT-STDVDRAM GSA-T20N Adapter: 1 ID: 0

Read mode : SecureUtilize accurate stream : YesDefeat audio cache : YesMake use of C2 pointers : No

Read offset correction : 667Overread into Lead-In and Lead-Out : NoFill up missing offset samples with silence : YesDelete leading and trailing silent blocks : NoNull samples used in CRC calculations : YesUsed interface : Native Win32 interface for Win NT & 2000Gap handling : Appended to previous track

Used output format : User Defined EncoderSelected bitrate : 320 kBit/sQuality : HighAdd ID3 tag : NoCommand line compressor : C:\Program Files\Exact Audio Copy\Flac\flac.exeAdditional command line options : -V -8 -T "artist=%a" -T "title=%t" -T "album=%g" -T "date=%y" -T "tracknumber=%n" -T "genre=%m" %s

TOC of the extracted CD

Track | Start | Length | Start sector | End sector --------------------------------------------------------- 1 | 0:00.00 | 16:28.42 | 0 | 74141 2 | 16:28.42 | 10:00.21 | 74142 | 119162 3 | 26:28.63 | 7:22.33 | 119163 | 152345

Track 1

Filename C:\Users\Franзois\Desktop\Music\The Impulse! Albums Volume One\Africa Brass\The John Coltrane Quartet - 1961 - Africa,Brass\01 - Africa.wav

Pre-gap length 0:00:02.00

Peak level 98.7 % Track quality 99.9 % Test CRC FC154D40 Copy CRC FC154D40 Accurately ripped (confidence 15) [74607BE6] Copy OK

Track 2

Filename C:\Users\Franзois\Desktop\Music\The Impulse! Albums Volume One\Africa Brass\The John Coltrane Quartet - 1961 - Africa,Brass\02 - Greensleeves.wav

Pre-gap length 0:00:02.02

Peak level 98.6 % Track quality 100.0 % Test CRC 1E0D57C9 Copy CRC 1E0D57C9 Accurately ripped (confidence 15) [9375BCB5] Copy OK

Track 3

Filename C:\Users\Franзois\Desktop\Music\The Impulse! Albums Volume One\Africa Brass\The John Coltrane Quartet - 1961 - Africa,Brass\03 - Blues Minor.wav

Pre-gap length 0:00:02.30

Peak level 97.2 % Track quality 100.0 % Test CRC 116EC4F7 Copy CRC 116EC4F7 Accurately ripped (confidence 15) [EE8DC9F3] Copy OK

All tracks accurately ripped

No errors occurred

End of status report
 
REM GENRE JazzREM DATE 1961REM DISCID 2307EF03REM COMMENT "ExactAudioCopy v0.99pb5"PERFORMER "The John Coltrane Quartet"TITLE "Africa/Brass"FILE "01 - Africa.wav" WAVE TRACK 01 AUDIO TITLE "Africa" INDEX 01 00:00:00 TRACK 02 AUDIO TITLE "Greensleeves" INDEX 00 16:26:40FILE "02 - Greensleeves.wav" WAVE INDEX 01 00:00:00 TRACK 03 AUDIO TITLE "Blues Minor" INDEX 00 09:57:73FILE "03 - Blues Minor.wav" WAVE INDEX 01 00:00:00


Time: 36:40

Трэклист:

01. Spiritual [13:50]
02. Softly As In A Morning Sunrise [6:40]
03. Chasin' The Trane [16:11]
 
Exact Audio Copy V0.99 prebeta 5 from 4. May 2009

EAC extraction logfile from 26. June 2009, 11:08

John Coltrane / "Live" At The Village Vanguard

Used drive : HL-DT-STDVDRAM GSA-T20N Adapter: 1 ID: 0

Read mode : SecureUtilize accurate stream : YesDefeat audio cache : YesMake use of C2 pointers : No

Read offset correction : 667Overread into Lead-In and Lead-Out : NoFill up missing offset samples with silence : YesDelete leading and trailing silent blocks : NoNull samples used in CRC calculations : YesUsed interface : Native Win32 interface for Win NT & 2000Gap handling : Appended to previous track

Used output format : User Defined EncoderSelected bitrate : 320 kBit/sQuality : HighAdd ID3 tag : NoCommand line compressor : C:\Program Files\Exact Audio Copy\Flac\flac.exeAdditional command line options : -V -8 -T "artist=%a" -T "title=%t" -T "album=%g" -T "date=%y" -T "tracknumber=%n" -T "genre=%m" %s

TOC of the extracted CD

Track | Start | Length | Start sector | End sector --------------------------------------------------------- 1 | 0:00.00 | 13:49.55 | 0 | 62229 2 | 13:49.55 | 6:39.39 | 62230 | 92193 3 | 20:29.19 | 16:11.16 | 92194 | 165034

Track 1

Filename C:\Users\Franзois\Desktop\Music\The Impulse! Albums Volume One\John Coltrane - 1961 - 'Live' At The Village Vanguard\01 - Spiritual.wav

Pre-gap length 0:00:02.00

Peak level 96.7 % Track quality 100.0 % Test CRC BB8D4BAD Copy CRC BB8D4BAD Accurately ripped (confidence 12) [32D9AAB7] Copy OK

Track 2

Filename C:\Users\Franзois\Desktop\Music\The Impulse! Albums Volume One\John Coltrane - 1961 - 'Live' At The Village Vanguard\02 - Softly As In A Morning Sunrise.wav

Peak level 98.3 % Track quality 100.0 % Test CRC 3ED85927 Copy CRC 3ED85927 Accurately ripped (confidence 12) [7206C308] Copy OK

Track 3

Filename C:\Users\Franзois\Desktop\Music\The Impulse! Albums Volume One\John Coltrane - 1961 - 'Live' At The Village Vanguard\03 - Chasin' The Trane.wav

Peak level 98.2 % Track quality 100.0 % Test CRC E4FD03FA Copy CRC E4FD03FA Accurately ripped (confidence 12) [DCB562CA] Copy OK

All tracks accurately ripped

No errors occurred

End of status report
 
REM GENRE JazzREM DATE 1961REM DISCID 15089803REM COMMENT "ExactAudioCopy v0.99pb5"PERFORMER "John Coltrane"TITLE "'Live' At The Village Vanguard"FILE "01 - Spiritual.wav" WAVE TRACK 01 AUDIO TITLE "Spiritual" INDEX 01 00:00:00FILE "02 - Softly As In A Morning Sunrise.wav" WAVE TRACK 02 AUDIO TITLE "Softly As In A Morning Sunrise" INDEX 01 00:00:00FILE "03 - Chasin' The Trane.wav" WAVE TRACK 03 AUDIO TITLE "Chasin' The Trane" INDEX 01 00:00:00


Time: 34:50

Трэклист:

01. In A Sentimental Mood [4:17]
02. Take The Coltrane [4:45]
03. Big Nick [4:31]
04. Stevie [4:25]
05. My Little Brown Book [5:22]
06. Angelica [5:59]
07. The Feeling Of Jazz [5:30]
 
Exact Audio Copy V0.99 prebeta 5 from 4. May 2009

EAC extraction logfile from 26. June 2009, 11:32

Duke Ellington & John Coltrane / Duke Ellington & John Coltrane

Used drive : HL-DT-STDVDRAM GSA-T20N Adapter: 1 ID: 0

Read mode : SecureUtilize accurate stream : YesDefeat audio cache : YesMake use of C2 pointers : No

Read offset correction : 667Overread into Lead-In and Lead-Out : NoFill up missing offset samples with silence : YesDelete leading and trailing silent blocks : NoNull samples used in CRC calculations : YesUsed interface : Native Win32 interface for Win NT & 2000Gap handling : Appended to previous track

Used output format : User Defined EncoderSelected bitrate : 320 kBit/sQuality : HighAdd ID3 tag : NoCommand line compressor : C:\Program Files\Exact Audio Copy\Flac\flac.exeAdditional command line options : -V -8 -T "artist=%a" -T "title=%t" -T "album=%g" -T "date=%y" -T "tracknumber=%n" -T "genre=%m" %s

TOC of the extracted CD

Track | Start | Length | Start sector | End sector --------------------------------------------------------- 1 | 0:00.00 | 4:17.30 | 0 | 19304 2 | 4:17.30 | 4:44.65 | 19305 | 40669 3 | 9:02.20 | 4:30.69 | 40670 | 60988 4 | 13:33.14 | 4:25.20 | 60989 | 80883 5 | 17:58.34 | 5:22.22 | 80884 | 105055 6 | 23:20.56 | 5:58.73 | 105056 | 131978 7 | 29:19.54 | 5:29.74 | 131979 | 156727

Track 1

Filename C:\Users\Franзois\Desktop\Music\The Impulse! Albums Volume One\Duke Ellington & John Coltrane - 1962 - Duke Ellington & John Coltrane\01 - In A Sentimental Mood.wav

Pre-gap length 0:00:02.00

Peak level 98.3 % Track quality 100.0 % Test CRC BCE57093 Copy CRC BCE57093 Accurately ripped (confidence 15) [F1D926A0] Copy OK

Track 2

Filename C:\Users\Franзois\Desktop\Music\The Impulse! Albums Volume One\Duke Ellington & John Coltrane - 1962 - Duke Ellington & John Coltrane\02 - Take The Coltrane.wav

Pre-gap length 0:00:02.17

Peak level 98.3 % Track quality 100.0 % Test CRC AC853B69 Copy CRC AC853B69 Accurately ripped (confidence 16) [C225C9D8] Copy OK

Track 3

Filename C:\Users\Franзois\Desktop\Music\The Impulse! Albums Volume One\Duke Ellington & John Coltrane - 1962 - Duke Ellington & John Coltrane\03 - Big Nick.wav

Pre-gap length 0:00:02.26

Peak level 98.3 % Track quality 100.0 % Test CRC DC4164CF Copy CRC DC4164CF Accurately ripped (confidence 16) [0F610C40] Copy OK

Track 4

Filename C:\Users\Franзois\Desktop\Music\The Impulse! Albums Volume One\Duke Ellington & John Coltrane - 1962 - Duke Ellington & John Coltrane\04 - Stevie.wav

Pre-gap length 0:00:03.78

Peak level 98.2 % Track quality 100.0 % Test CRC A1F43AA6 Copy CRC A1F43AA6 Accurately ripped (confidence 16) [FEE5D234] Copy OK

Track 5

Filename C:\Users\Franзois\Desktop\Music\The Impulse! Albums Volume One\Duke Ellington & John Coltrane - 1962 - Duke Ellington & John Coltrane\05 - My Little Brown Book.wav

Pre-gap length 0:00:02.32

Peak level 98.3 % Track quality 100.0 % Test CRC C27BC57B Copy CRC C27BC57B Accurately ripped (confidence 16) [8F5E05F9] Copy OK

Track 6

Filename C:\Users\Franзois\Desktop\Music\The Impulse! Albums Volume One\Duke Ellington & John Coltrane - 1962 - Duke Ellington & John Coltrane\06 - Angelica.wav

Pre-gap length 0:00:02.56

Peak level 98.2 % Track quality 99.9 % Test CRC 3611E58A Copy CRC 3611E58A Accurately ripped (confidence 16) [EC60DBF7] Copy OK

Track 7

Filename C:\Users\Franзois\Desktop\Music\The Impulse! Albums Volume One\Duke Ellington & John Coltrane - 1962 - Duke Ellington & John Coltrane\07 - The Feeling Of Jazz.wav

Pre-gap length 0:00:05.41

Peak level 98.3 % Track quality 100.0 % Test CRC E537FB7C Copy CRC E537FB7C Accurately ripped (confidence 16) [262F6D8B] Copy OK

All tracks accurately ripped

No errors occurred

End of status report
 
REM GENRE JazzREM DATE 1962REM DISCID 4C082907REM COMMENT "ExactAudioCopy v0.99pb5"PERFORMER "Duke Ellington & John Coltrane"TITLE "Duke Ellington & John Coltrane"FILE "01 - In A Sentimental Mood.wav" WAVE TRACK 01 AUDIO TITLE "In A Sentimental Mood" INDEX 01 00:00:00 TRACK 02 AUDIO TITLE "Take The Coltrane" INDEX 00 04:15:17FILE "02 - Take The Coltrane.wav" WAVE INDEX 01 00:00:00 TRACK 03 AUDIO TITLE "Big Nick" INDEX 00 04:42:45FILE "03 - Big Nick.wav" WAVE INDEX 01 00:00:00 TRACK 04 AUDIO TITLE "Stevie" INDEX 00 04:27:10FILE "04 - Stevie.wav" WAVE INDEX 01 00:00:00 TRACK 05 AUDIO TITLE "My Little Brown Book" INDEX 00 04:22:71FILE "05 - My Little Brown Book.wav" WAVE INDEX 01 00:00:00 TRACK 06 AUDIO TITLE "Angelica" INDEX 00 05:19:55FILE "06 - Angelica.wav" WAVE INDEX 01 00:00:00 TRACK 07 AUDIO TITLE "The Feeling Of Jazz" INDEX 00 05:53:42FILE "07 - The Feeling Of Jazz.wav" WAVE INDEX 01 00:00:00


Time: 39:58

Трэклист:

01. Out of This World [14:06]
02. Soul Eyes [5:27]
03. The Inch Worm [6:19]
04. Tunji (Toon-gee) [6:33]
05. Miles' Mode [7:32]
 
Exact Audio Copy V0.99 prebeta 5 from 4. May 2009

EAC extraction logfile from 26. June 2009, 11:56

John Coltrane / Coltrane

Used drive : HL-DT-STDVDRAM GSA-T20N Adapter: 1 ID: 0

Read mode : SecureUtilize accurate stream : YesDefeat audio cache : YesMake use of C2 pointers : No

Read offset correction : 667Overread into Lead-In and Lead-Out : NoFill up missing offset samples with silence : YesDelete leading and trailing silent blocks : NoNull samples used in CRC calculations : YesUsed interface : Native Win32 interface for Win NT & 2000Gap handling : Appended to previous track

Used output format : User Defined EncoderSelected bitrate : 320 kBit/sQuality : HighAdd ID3 tag : NoCommand line compressor : C:\Program Files\Exact Audio Copy\Flac\flac.exeAdditional command line options : -V -8 -T "artist=%a" -T "title=%t" -T "album=%g" -T "date=%y" -T "tracknumber=%n" -T "genre=%m" %s

TOC of the extracted CD

Track | Start | Length | Start sector | End sector --------------------------------------------------------- 1 | 0:00.00 | 14:06.22 | 0 | 63471 2 | 14:06.22 | 5:26.53 | 63472 | 87974 3 | 19:33.00 | 6:19.33 | 87975 | 116432 4 | 25:52.33 | 6:33.24 | 116433 | 145931 5 | 32:25.57 | 7:31.69 | 145932 | 179825

Track 1

Filename C:\Users\Franзois\Desktop\Music\The Impulse! Albums Volume One\John Coltrane - 1962 - Coltrane\01 - Out of This World.wav

Pre-gap length 0:00:02.00

Peak level 98.8 % Track quality 100.0 % Test CRC 8EC96220 Copy CRC 8EC96220 Accurately ripped (confidence 11) [1BB80FF8] Copy OK

Track 2

Filename C:\Users\Franзois\Desktop\Music\The Impulse! Albums Volume One\John Coltrane - 1962 - Coltrane\02 - Soul Eyes.wav

Pre-gap length 0:00:01.72

Peak level 98.2 % Track quality 100.0 % Test CRC 3CB4E6A5 Copy CRC 3CB4E6A5 Accurately ripped (confidence 11) [0E3E4812] Copy OK

Track 3

Filename C:\Users\Franзois\Desktop\Music\The Impulse! Albums Volume One\John Coltrane - 1962 - Coltrane\03 - The Inch Worm.wav

Pre-gap length 0:00:02.70

Peak level 98.8 % Track quality 100.0 % Test CRC CF0808BC Copy CRC CF0808BC Accurately ripped (confidence 11) [1FED6638] Copy OK

Track 4

Filename C:\Users\Franзois\Desktop\Music\The Impulse! Albums Volume One\John Coltrane - 1962 - Coltrane\04 - Tunji (Toon-gee).wav

Pre-gap length 0:00:02.52

Peak level 98.6 % Track quality 100.0 % Test CRC 1E9F59F2 Copy CRC 1E9F59F2 Accurately ripped (confidence 11) [9769610F] Copy OK

Track 5

Filename C:\Users\Franзois\Desktop\Music\The Impulse! Albums Volume One\John Coltrane - 1962 - Coltrane\05 - Miles' Mode.wav

Pre-gap length 0:00:01.92

Peak level 98.7 % Track quality 100.0 % Test CRC E08E3777 Copy CRC E08E3777 Accurately ripped (confidence 11) [6477457E] Copy OK

All tracks accurately ripped

No errors occurred

End of status report
 
REM GENRE JazzREM DATE 1962REM DISCID 48095D05REM COMMENT "ExactAudioCopy v0.99pb5"PERFORMER "John Coltrane"TITLE "Coltrane"FILE "01 - Out of This World.wav" WAVE TRACK 01 AUDIO TITLE "Out of This World" INDEX 01 00:00:00 TRACK 02 AUDIO INDEX 00 14:04:43FILE "02 - Soul Eyes.wav" WAVE INDEX 01 00:00:00 TITLE "Soul Eyes" TRACK 03 AUDIO INDEX 00 05:24:00FILE "03 - The Inch Worm.wav" WAVE INDEX 01 00:00:00 TITLE "The Inch Worm" TRACK 04 AUDIO INDEX 00 06:16:69FILE "04 - Tunji (Toon-gee).wav" WAVE INDEX 01 00:00:00 TITLE "Tunji (Toon-gee)" TRACK 05 AUDIO TITLE "Miles' Mode" INDEX 00 06:31:30FILE "05 - Miles' Mode.wav" WAVE INDEX 01 00:00:00


Трекер:  [ 14-Фев-2012 09:52 ]

  

Скачать .torrent

Размер .torrent файла 15 KB


Размер: 1.15 GB
Хэш (hash) релиза: f04d152770c9cc55648f51ba5e563c5040b7a2c0

Еще никто не оставлял запись к записи скачать торрент John Coltrane - The Impulse! Albums: Volume One - 2007, FLAC . Будь первым!

!Обратная связь