Скачать через торрент музыку Bill Evans - The Sesjun Radio Shows бесплатно без регистрации torrent

Если у вас наблюдаются проблемы со скриншотами, переходом по ссылками, скачиванием торрентов - проблемы в блокировщике рекламы AdBlock. #хорошегоДня!


Статистика раздачи
Размер:  701 MB   |    Зарегистрирован:  5 лет 8 месяцев   |    .torrent скачан:  38 раз   |   
Раздают:  1  
   
Загрузка...
 
Автор Сообщение

Umakiro

avatar Umakiro


Bill Evans / The Sesjun Radio Shows (2 CD)

Жанр: Post-Bop, Cool, Piano Jazz
Страна-производитель диска: Netherlands
Год издания диска: 2011
Издатель (лейбл): T2 Entertainment
Номер по каталогу: PRCD 2011005
Страна: USA Plainfield, NJ
Аудиокодек: FLAC (*.flac)
Тип рипа: tracks+.cue
Битрейт аудио: lossless
Продолжительность: 02:07:11
Источник (релизер): wrong
Наличие сканов в содержимом раздачи: да
Треклист:
01. Up With The Lark [06:37]
02. Time Remembered [05:42]
03. Ttt [04:55]
04. The Two Lonely People [07:26]
05. Some Other Time [04:50]
06. Sugar Plum [07:47]
07. Sareen Jurer [06:59]
08. Morning Glory [04:33]
09. Tttt [06:48]
10. Blue Serge [05:10]
 
Exact Audio Copy V1.0 beta 2 from 29. April 2011

EAC extraction logfile from 10. September 2011, 16:13

Bill Evans / The SESJUN Radio Shows

Used drive : HL-DT-STDVDRAM_GT30N Adapter: 1 ID: 0

Read mode : SecureUtilize accurate stream : YesDefeat audio cache : YesMake use of C2 pointers : No

Read offset correction : 103Overread into Lead-In and Lead-Out : NoFill up missing offset samples with silence : YesDelete leading and trailing silent blocks : NoNull samples used in CRC calculations : YesUsed interface : Native Win32 interface for Win NT & 2000Gap handling : Appended to previous track

Used output format : User Defined EncoderSelected bitrate : 640 kBit/sQuality : HighAdd ID3 tag : NoCommand line compressor : C:\Program Files\Exact Audio Copyv1.0b2\Flac\flac.exeAdditional command line options : -8 -V -T "ARTIST=%artist%" -T "TITLE=%title%" -T "ALBUM=%albumtitle%" -T "DATE=%year%" -T "TRACKNUMBER=%tracknr%" -T "TOTALTRACKS=%numtracks%" -T "GENRE=%genre%" -T "ALBUMARTIST=%albumartist%" -T "ALBUM ARTIST=%albumartist%

TOC of the extracted CD

Track | Start | Length | Start sector | End sector --------------------------------------------------------- 1 | 0:00.00 | 6:37.41 | 0 | 29815 2 | 6:37.41 | 5:42.47 | 29816 | 55512 3 | 12:20.13 | 4:55.51 | 55513 | 77688 4 | 17:15.64 | 7:26.58 | 77689 | 111196 5 | 24:42.47 | 4:52.64 | 111197 | 133160 6 | 29:35.36 | 7:47.35 | 133161 | 168220 7 | 37:22.71 | 6:59.67 | 168221 | 199712 8 | 44:22.63 | 4:33.37 | 199713 | 220224 9 | 48:56.25 | 6:48.55 | 220225 | 250879 10 | 55:45.05 | 5:10.74 | 250880 | 274203

Track 1

Filename I:\my upload\Bill Evans - The Sesjun Radio Shows (2011) [FLAC] {T2 Entertainment, PRCD 2011005}\CD1\01 - Up With The Lark.wav

Pre-gap length 0:00:02.00

Peak level 88.5 % Extraction speed 1.3 X Track quality 100.0 % Test CRC C01076F7 Copy CRC C01076F7 Accurately ripped (confidence 1) [CF42C58B] (AR v1) Copy OK

Track 2

Filename I:\my upload\Bill Evans - The Sesjun Radio Shows (2011) [FLAC] {T2 Entertainment, PRCD 2011005}\CD1\02 - Time Remembered.wav

Peak level 70.2 % Extraction speed 1.4 X Track quality 99.9 % Test CRC B52D2954 Copy CRC B52D2954 Accurately ripped (confidence 1) [2F7AE0BD] (AR v1) Copy OK

Track 3

Filename I:\my upload\Bill Evans - The Sesjun Radio Shows (2011) [FLAC] {T2 Entertainment, PRCD 2011005}\CD1\03 - Ttt.wav

Peak level 89.0 % Extraction speed 1.6 X Track quality 100.0 % Test CRC 589BA05A Copy CRC 589BA05A Accurately ripped (confidence 1) [1C0A6E6D] (AR v1) Copy OK

Track 4

Filename I:\my upload\Bill Evans - The Sesjun Radio Shows (2011) [FLAC] {T2 Entertainment, PRCD 2011005}\CD1\04 - The Two Lonely People.wav

Peak level 86.5 % Extraction speed 1.9 X Track quality 100.0 % Test CRC AA855EFC Copy CRC AA855EFC Accurately ripped (confidence 1) [42DB9B20] (AR v1) Copy OK

Track 5

Filename I:\my upload\Bill Evans - The Sesjun Radio Shows (2011) [FLAC] {T2 Entertainment, PRCD 2011005}\CD1\05 - Some Other Time.wav

Peak level 99.9 % Extraction speed 2.0 X Track quality 100.0 % Test CRC 89C62865 Copy CRC 89C62865 Accurately ripped (confidence 1) [E481BE34] (AR v1) Copy OK

Track 6

Filename I:\my upload\Bill Evans - The Sesjun Radio Shows (2011) [FLAC] {T2 Entertainment, PRCD 2011005}\CD1\06 - Sugar Plum.wav

Pre-gap length 0:00:02.45

Peak level 53.5 % Extraction speed 2.0 X Track quality 99.9 % Test CRC FD74899E Copy CRC FD74899E Accurately ripped (confidence 1) [3F2F9839] (AR v1) Copy OK

Track 7

Filename I:\my upload\Bill Evans - The Sesjun Radio Shows (2011) [FLAC] {T2 Entertainment, PRCD 2011005}\CD1\07 - Sareen Jurer.wav

Peak level 56.0 % Extraction speed 2.3 X Track quality 100.0 % Test CRC D3EAF3CF Copy CRC D3EAF3CF Accurately ripped (confidence 1) [DCAE8055] (AR v1) Copy OK

Track 8

Filename I:\my upload\Bill Evans - The Sesjun Radio Shows (2011) [FLAC] {T2 Entertainment, PRCD 2011005}\CD1\08 - Morning Glory.wav

Peak level 64.1 % Extraction speed 2.3 X Track quality 100.0 % Test CRC B400C3C1 Copy CRC B400C3C1 Accurately ripped (confidence 1) [227D278F] (AR v1) Copy OK

Track 9

Filename I:\my upload\Bill Evans - The Sesjun Radio Shows (2011) [FLAC] {T2 Entertainment, PRCD 2011005}\CD1\09 - Tttt.wav

Peak level 99.9 % Extraction speed 2.6 X Track quality 100.0 % Test CRC 824612AC Copy CRC 824612AC Accurately ripped (confidence 1) [410CB874] (AR v1) Copy OK

Track 10

Filename I:\my upload\Bill Evans - The Sesjun Radio Shows (2011) [FLAC] {T2 Entertainment, PRCD 2011005}\CD1\10 - Blue Serge.wav

Peak level 91.9 % Extraction speed 2.6 X Track quality 100.0 % Test CRC 36E7603F Copy CRC 36E7603F Accurately ripped (confidence 1) [E1BCF53D] (AR v1) Copy OK

All tracks accurately ripped

No errors occurred

End of status report

==== Log checksum DCF513CC98F958838A43FA936C5BC9718AA794AA556AB8FFE29D9D7904C25682 ====
 
REM DISCID 9B0E480AREM COMMENT "ExactAudioCopy v1.0b2"PERFORMER "Bill Evans "TITLE "The SESJUN Radio Shows"FILE "01 - Up With The Lark.wav" WAVE TRACK 01 AUDIO TITLE "Up With The Lark" PERFORMER "Bill Evans " INDEX 01 00:00:00FILE "02 - Time Remembered.wav" WAVE TRACK 02 AUDIO TITLE "Time Remembered" PERFORMER "Bill Evans " INDEX 01 00:00:00FILE "03 - Ttt.wav" WAVE TRACK 03 AUDIO TITLE "Ttt" PERFORMER "Bill Evans " INDEX 01 00:00:00FILE "04 - The Two Lonely People.wav" WAVE TRACK 04 AUDIO TITLE "The Two Lonely People" PERFORMER "Bill Evans " INDEX 01 00:00:00FILE "05 - Some Other Time.wav" WAVE TRACK 05 AUDIO TITLE "Some Other Time" PERFORMER "Bill Evans " INDEX 01 00:00:00 TRACK 06 AUDIO TITLE "Sugar Plum" PERFORMER "Bill Evans " INDEX 00 04:50:19FILE "06 - Sugar Plum.wav" WAVE INDEX 01 00:00:00FILE "07 - Sareen Jurer.wav" WAVE TRACK 07 AUDIO TITLE "Sareen Jurer" PERFORMER "Bill Evans " INDEX 01 00:00:00FILE "08 - Morning Glory.wav" WAVE TRACK 08 AUDIO TITLE "Morning Glory" PERFORMER "Bill Evans " INDEX 01 00:00:00FILE "09 - Tttt.wav" WAVE TRACK 09 AUDIO TITLE "Tttt" PERFORMER "Bill Evans " INDEX 01 00:00:00FILE "10 - Blue Serge.wav" WAVE TRACK 10 AUDIO TITLE "Blue Serge" PERFORMER "Bill Evans " INDEX 01 00:00:00
Треклист:
01. If You Could See Me Now [05:43]
02. My Romance [09:35]
03. Laurie [07:35]
04. Nardis [12:50]
05. Blue In Green [04:16]
06. The Days Of Wine And Roses [07:34]
07. I Do It For Your Love [09:03]
08. Bluesette [06:36]
09. Five [03:10]
 
Exact Audio Copy V1.0 beta 2 from 29. April 2011

EAC extraction logfile from 10. September 2011, 17:46

Bill Evans / The SESJUN Radio Shows

Used drive : HL-DT-STDVDRAM_GT30N Adapter: 1 ID: 0

Read mode : SecureUtilize accurate stream : YesDefeat audio cache : YesMake use of C2 pointers : No

Read offset correction : 103Overread into Lead-In and Lead-Out : NoFill up missing offset samples with silence : YesDelete leading and trailing silent blocks : NoNull samples used in CRC calculations : YesUsed interface : Native Win32 interface for Win NT & 2000Gap handling : Appended to previous track

Used output format : User Defined EncoderSelected bitrate : 640 kBit/sQuality : HighAdd ID3 tag : NoCommand line compressor : C:\Program Files\Exact Audio Copyv1.0b2\Flac\flac.exeAdditional command line options : -8 -V -T "ARTIST=%artist%" -T "TITLE=%title%" -T "ALBUM=%albumtitle%" -T "DATE=%year%" -T "TRACKNUMBER=%tracknr%" -T "TOTALTRACKS=%numtracks%" -T "GENRE=%genre%" -T "ALBUMARTIST=%albumartist%" -T "ALBUM ARTIST=%albumartist%

TOC of the extracted CD

Track | Start | Length | Start sector | End sector --------------------------------------------------------- 1 | 0:00.00 | 5:43.61 | 0 | 25785 2 | 5:43.61 | 9:35.40 | 25786 | 68950 3 | 15:19.26 | 7:35.41 | 68951 | 103116 4 | 22:54.67 | 12:50.21 | 103117 | 160887 5 | 35:45.13 | 4:16.57 | 160888 | 180144 6 | 40:01.70 | 7:34.38 | 180145 | 214232 7 | 47:36.33 | 9:03.67 | 214233 | 255024 8 | 56:40.25 | 6:36.11 | 255025 | 284735 9 | 63:16.36 | 3:10.34 | 284736 | 299019

Track 1

Filename I:\my upload\Bill Evans - The Sesjun Radio Shows (2011) [FLAC] {T2 Entertainment, PRCD 2011005}\CD2\01 - If You Could See Me Now.wav

Pre-gap length 0:00:02.00

Peak level 63.0 % Extraction speed 1.3 X Track quality 100.0 % Test CRC 91657E5E Copy CRC 91657E5E Accurately ripped (confidence 1) [63FEAB7F] (AR v1) Copy OK

Track 2

Filename I:\my upload\Bill Evans - The Sesjun Radio Shows (2011) [FLAC] {T2 Entertainment, PRCD 2011005}\CD2\02 - My Romance.wav

Peak level 99.9 % Extraction speed 1.6 X Track quality 100.0 % Test CRC AF77642A Copy CRC AF77642A Accurately ripped (confidence 1) [B6321455] (AR v1) Copy OK

Track 3

Filename I:\my upload\Bill Evans - The Sesjun Radio Shows (2011) [FLAC] {T2 Entertainment, PRCD 2011005}\CD2\03 - Laurie.wav

Peak level 64.4 % Extraction speed 1.8 X Track quality 100.0 % Test CRC 99068525 Copy CRC 99068525 Accurately ripped (confidence 1) [B9350695] (AR v1) Copy OK

Track 4

Filename I:\my upload\Bill Evans - The Sesjun Radio Shows (2011) [FLAC] {T2 Entertainment, PRCD 2011005}\CD2\04 - Nardis.wav

Peak level 95.5 % Extraction speed 2.2 X Track quality 100.0 % Test CRC 377E6868 Copy CRC 377E6868 Accurately ripped (confidence 1) [F3107BF2] (AR v1) Copy OK

Track 5

Filename I:\my upload\Bill Evans - The Sesjun Radio Shows (2011) [FLAC] {T2 Entertainment, PRCD 2011005}\CD2\05 - Blue In Green.wav

Peak level 75.8 % Extraction speed 2.1 X Track quality 100.0 % Test CRC 44345803 Copy CRC 44345803 Accurately ripped (confidence 1) [D215CA0D] (AR v1) Copy OK

Track 6

Filename I:\my upload\Bill Evans - The Sesjun Radio Shows (2011) [FLAC] {T2 Entertainment, PRCD 2011005}\CD2\06 - The Days Of Wine And Roses.wav

Peak level 78.1 % Extraction speed 2.2 X Track quality 99.9 % Test CRC EFD4D5B2 Copy CRC EFD4D5B2 Accurately ripped (confidence 1) [C9316FBA] (AR v1) Copy OK

Track 7

Filename I:\my upload\Bill Evans - The Sesjun Radio Shows (2011) [FLAC] {T2 Entertainment, PRCD 2011005}\CD2\07 - I Do It For Your Love.wav

Peak level 79.6 % Extraction speed 2.6 X Track quality 100.0 % Test CRC 7114FE4C Copy CRC 7114FE4C Accurately ripped (confidence 1) [A52D11B2] (AR v1) Copy OK

Track 8

Filename I:\my upload\Bill Evans - The Sesjun Radio Shows (2011) [FLAC] {T2 Entertainment, PRCD 2011005}\CD2\08 - Bluesette.wav

Peak level 89.3 % Extraction speed 2.6 X Track quality 100.0 % Test CRC B033D1CA Copy CRC B033D1CA Cannot be verified as accurate (confidence 1) [37E8B2B0], AccurateRip returned [E89B89B1] (AR v2) Copy OK

Track 9

Filename I:\my upload\Bill Evans - The Sesjun Radio Shows (2011) [FLAC] {T2 Entertainment, PRCD 2011005}\CD2\09 - Five.wav

Peak level 88.9 % Extraction speed 2.5 X Track quality 100.0 % Test CRC 568D1E1D Copy CRC 568D1E1D Accurately ripped (confidence 1) [093E1FC3] (AR v1) Copy OK

8 track(s) accurately ripped 1 track(s) could not be verified as accurate

Some tracks could not be verified as accurate

No errors occurred

End of status report

==== Log checksum 25A36B2E5FF6D4E7A29F277D44D3DFF06357A92EAED57CEEEA75532156D5DD33 ====
 
REM GENRE JazzREM DATE 2011REM DISCID 7D0F9209REM COMMENT "ExactAudioCopy v1.0b2"PERFORMER "Bill Evans "TITLE "The SESJUN Radio Shows"FILE "01 - If You Could See Me Now.wav" WAVE TRACK 01 AUDIO TITLE "If You Could See Me Now" PERFORMER "Bill Evans " INDEX 01 00:00:00FILE "02 - My Romance.wav" WAVE TRACK 02 AUDIO TITLE "My Romance" PERFORMER "Bill Evans " INDEX 01 00:00:00FILE "03 - Laurie.wav" WAVE TRACK 03 AUDIO TITLE "Laurie" PERFORMER "Bill Evans " INDEX 01 00:00:00FILE "04 - Nardis.wav" WAVE TRACK 04 AUDIO TITLE "Nardis" PERFORMER "Bill Evans " INDEX 01 00:00:00FILE "05 - Blue In Green.wav" WAVE TRACK 05 AUDIO TITLE "Blue In Green" PERFORMER "Bill Evans " INDEX 01 00:00:00FILE "06 - The Days Of Wine And Roses.wav" WAVE TRACK 06 AUDIO TITLE "The Days Of Wine And Roses" PERFORMER "Bill Evans " INDEX 01 00:00:00FILE "07 - I Do It For Your Love.wav" WAVE TRACK 07 AUDIO TITLE "I Do It For Your Love" PERFORMER "Bill Evans " INDEX 01 00:00:00FILE "08 - Bluesette.wav" WAVE TRACK 08 AUDIO TITLE "Bluesette" PERFORMER "Bill Evans " INDEX 01 00:00:00FILE "09 - Five.wav" WAVE TRACK 09 AUDIO TITLE "Five" PERFORMER "Bill Evans " INDEX 01 00:00:00
Bass – Eddie Gomez (tracks: 1-1 to 1-10), Marc Johnson (2) (tracks: 2-1 to 2-9)
Drums – Eliot Zigmund (tracks: 1-6 to 1-10), Joe LaBarbera (tracks: 2-1 to 2-9)
Harmonica – Toots Thielemans (tracks: 2-5 to 2-9)
Piano – Bill Evans


Трекер:  [ 14-Фев-2012 09:51 ]

  

Скачать .torrent

Размер .torrent файла 16 KB


Размер: 701 MB
Хэш (hash) релиза: 844bb342f0e896e794a34a376dc3810e575c83d1

Еще никто не оставлял запись к записи скачать торрент Bill Evans - The Sesjun Radio Shows . Будь первым!

!Обратная связь