Скачать через торрент музыку Dizzy Gillespie - Closer To The Source бесплатно без регистрации torrent

Если у вас наблюдаются проблемы со скриншотами, переходом по ссылками, скачиванием торрентов - проблемы в блокировщике рекламы AdBlock. #хорошегоДня!


Статистика раздачи
Размер:  247 MB   |    Зарегистрирован:  5 лет 8 месяцев   |    .torrent скачан:  40 раз   |   
Раздают:  1  
   
Загрузка...
 
Автор Сообщение

Umakiro

avatar Umakiro


Dizzy Gillespie – Closer To The Source (1984)

Жанр: Jazz Funk
Год издания диска: 1998
Издатель (лейбл): Atlantic
Номер по каталогу: 7567-80776-2
Аудиокодек: FLAC (*.flac)
Тип рипа: image+.cue
Битрейт аудио: lossless
Релизер: TheWarrior
Продолжительность: 37:58
Наличие сканов в содержимом раздачи: да

Треклист:
01. Could It Be You (5:14)
02. It's Time For Love (5:00)
03. Closer To The Source (4:58)
04. You're No. 1-in My Book (4:23)
05. Iced Tea (6:20)
06. Just Before Dawn (4:53)
07. Textures (7:10)

Personnel:
Dizzy Gillespie - trumpet
Hiram Bullock - guitar
Barry J. Eastmond - keyboards
Dizzy Gillespie - vocals
Kenny Kirkland
Mino Cinelu
Sonny Fortune - alto saxophone
Angel Rogers - vocals
Elijah "Buddy" Harper - drums
Tony Cintron Jr.
Marty Bracey - percussion
Thomas Barney - bass guitar
Also:
Stevie Wonder - Harmonica, Synthesizer
Marcus Miller - Bass, Synthesizer
Branford Marsalis - Tenor Saxophone
 
 
Exact Audio Copy V0.99 prebeta 4 from 23. January 2008

EAC extraction logfile from 20. December 2009, 14:07

Dizzy Gillespie / Closer to the source

Used drive : ATAPI DVD A DH20A4P Adapter: 1 ID: 0

Read mode : SecureUtilize accurate stream : YesDefeat audio cache : YesMake use of C2 pointers : No

Read offset correction : 6Overread into Lead-In and Lead-Out : NoFill up missing offset samples with silence : YesDelete leading and trailing silent blocks : NoNull samples used in CRC calculations : YesUsed interface : Installed external ASPI interface

Used output format : Internal WAV RoutinesSample format : 44.100 Hz; 16 Bit; Stereo

TOC of the extracted CD

Track | Start | Length | Start sector | End sector --------------------------------------------------------- 1 | 0:00.00 | 5:14.30 | 0 | 23579 2 | 5:14.30 | 5:00.28 | 23580 | 46107 3 | 10:14.58 | 4:57.53 | 46108 | 68435 4 | 15:12.36 | 4:23.15 | 68436 | 88175 5 | 19:35.51 | 6:20.36 | 88176 | 116711 6 | 25:56.12 | 4:52.49 | 116712 | 138660 7 | 30:48.61 | 7:09.51 | 138661 | 170886

Range status and errors

Selected range

Filename C:\Documents and Settings\Marta & Marнa\Escritorio\EAC IMATGES\Dizzy Gillespie - Closer to the source\Dizzy Gillespie - Closer to the source.wav

Peak level 100.0 % Range quality 100.0 % Test CRC EC0A52FE Copy CRC EC0A52FE Copy OK

No errors occurred

AccurateRip summary

Track 1 accurately ripped (confidence 1) [A8D9777B]Track 2 accurately ripped (confidence 1) [9176EA55]Track 3 accurately ripped (confidence 1) [4E77D0E4]Track 4 accurately ripped (confidence 1) [64CA1A61]Track 5 accurately ripped (confidence 1) [BD4228AF]Track 6 accurately ripped (confidence 1) [AD273019]Track 7 accurately ripped (confidence 1) [5C545BAC]

All tracks accurately ripped

End of status report
 
REM GENRE JazzREM DATE 1984REM DISCID 5808E607REM COMMENT ExactAudioCopy v0.99pb4CATALOG 7567080774020PERFORMER "Dizzy Gillespie"TITLE "Closer To The Source"FILE "Dizzy Gillespie - Closer To The Source.flac" WAVE TRACK 01 AUDIO TITLE "Could It Be You" INDEX 01 00:00:00 TRACK 02 AUDIO TITLE "It's Time For Love" INDEX 00 05:11:38 INDEX 01 05:14:30 TRACK 03 AUDIO TITLE "Closer To The Source" INDEX 00 10:13:37 INDEX 01 10:14:58 TRACK 04 AUDIO TITLE "You're No. 1-in My Book" INDEX 00 15:11:25 INDEX 01 15:12:36 TRACK 05 AUDIO TITLE "Iced Tea" INDEX 00 19:33:30 INDEX 01 19:35:51 TRACK 06 AUDIO TITLE "Just Before Dawn" INDEX 00 25:53:57 INDEX 01 25:56:12 TRACK 07 AUDIO TITLE "Textures" INDEX 00 30:46:50 INDEX 01 30:48:61
 

Трекер:  [ 14-Фев-2012 09:50 ]

  

Скачать .torrent

Размер .torrent файла 20 KB


Размер: 247 MB
Хэш (hash) релиза: 1b065912ffc4145214fbee9eb5a32539acdde8f7

Еще никто не оставлял запись к записи скачать торрент Dizzy Gillespie - Closer To The Source . Будь первым!

!Обратная связь