Скачать через торрент музыку John Coltrane - The Best of John Coltrane бесплатно без регистрации torrent

Если у вас наблюдаются проблемы со скриншотами, переходом по ссылками, скачиванием торрентов - проблемы в блокировщике рекламы AdBlock. #хорошегоДня!


Статистика раздачи
Размер:  1.14 GB   |    Зарегистрирован:  5 лет 8 месяцев   |    .torrent скачан:  39 раз   |   
Раздают:  1  
   
Загрузка...
 
Автор Сообщение

Umakiro

avatar Umakiro


John Coltrane - The Best of John Coltrane (3CD)

Жанр: Bop, Hard Bop, Post-Bop
Страна-производитель диска: EMI France
Год издания диска: 2009
Издатель (лейбл): Blue Note 6868942 (EMI)
Номер по каталогу: 50999 686894 2 1
Тип: Box Set, Compilation
Страна: U.S.A.
Аудиокодек: FLAC (*.flac)
Тип рипа: tracks+.cue
Битрейт аудио: lossless
Продолжительность: 183:32
Источник (релизер): (What.)
Наличие сканов в содержимом раздачи: нет
Треклист:
CD 1:
1.Trane's Blues - Feat. Джон Пол Джонс, Пол Чемберс
2.Shifting Down
3.Dexterity
4.Speak Low
5.Like Someone In Love
6.Double Clutching
7.Just Friends
8.One And Four (Aka Mr Day)

CD 2:
1.Blue Train
2.Blue Train (Alternate Take)
3.Moment's Notice
4.Locomotion
5.I'm Old Fashioned
6.Lazy Bird
7.Lazy Bird (Alternate Take)

CD 3:
1.Just For The Love - Feat. Пол Чемберс
2.Sonny's Crib - Feat. Сонни Кларк
3.Monk's Mood (Live At Carnegie Hall) - Feat. Thelonious Monk Quartet
4.Epistrophy (Live At Carnegie Hall) - Feat. Thelonious Monk Quartet
5.Smoke Stack (Alternate Take. Rudy Van Gelder Version) - Feat. Джонни Гриффин
6.Come Rain Or Come Shine - Feat. Сонни Кларк
7.Nita - Feat. Пол Чемберс
8.Ball Bearing (Rudy Van Gelder) - Feat. Джонни Гриффин
 
Exact Audio Copy V0.99 prebeta 5 from 4. May 2009

EAC extraction logfile from 13. February 2010, 22:09

John Coltrane / Best Of CD1 of 3CD

Used drive : TEAC CD-W54E Adapter: 0 ID: 0

Read mode : SecureUtilize accurate stream : YesDefeat audio cache : YesMake use of C2 pointers : No

Read offset correction : 685Overread into Lead-In and Lead-Out : NoFill up missing offset samples with silence : YesDelete leading and trailing silent blocks : NoNull samples used in CRC calculations : YesUsed interface : Installed external ASPI interfaceGap handling : Appended to previous track

Used output format : User Defined EncoderSelected bitrate : 1024 kBit/sQuality : HighAdd ID3 tag : NoCommand line compressor : C:\Program Files\Exact Audio Copy\Flac\flac.exeAdditional command line options : -V -8 -T "artist=%a" -T "title=%t" -T "album=%g" -T "date=%y" -T "tracknumber=%n" -T "genre=%m" %s

TOC of the extracted CD

Track | Start | Length | Start sector | End sector --------------------------------------------------------- 1 | 0:00.00 | 6:58.08 | 0 | 31357 2 | 6:58.08 | 10:42.72 | 31358 | 79579 3 | 17:41.05 | 6:47.07 | 79580 | 110111 4 | 24:28.12 | 6:50.20 | 110112 | 140881 5 | 31:18.32 | 8:09.56 | 140882 | 177612 6 | 39:28.13 | 8:21.47 | 177613 | 215234 7 | 47:49.60 | 6:17.07 | 215235 | 243516 8 | 54:06.67 | 7:37.40 | 243517 | 277831

Track 1

Filename D:\LOSSLESS\John Coltrane - Best Of (3CD Emi Music France)\CD1\01.Trane`s Blues (aka John Paul Jones with Paul Chambers).wav

Pre-gap length 0:00:02.00

Peak level 92.5 % Track quality 100.0 % Test CRC 16FF7287 Copy CRC 16FF7287 Track not present in AccurateRip database Copy OK

Track 2

Filename D:\LOSSLESS\John Coltrane - Best Of (3CD Emi Music France)\CD1\02.Shifting Down.wav

Peak level 85.7 % Track quality 100.0 % Test CRC 0D8C2030 Copy CRC 0D8C2030 Track not present in AccurateRip database Copy OK

Track 3

Filename D:\LOSSLESS\John Coltrane - Best Of (3CD Emi Music France)\CD1\03.Dexterity.wav

Peak level 89.8 % Track quality 99.9 % Test CRC 17FCE6AE Copy CRC 17FCE6AE Track not present in AccurateRip database Copy OK

Track 4

Filename D:\LOSSLESS\John Coltrane - Best Of (3CD Emi Music France)\CD1\04.Speak Low.wav

Peak level 97.3 % Track quality 100.0 % Test CRC 294ABE8B Copy CRC 294ABE8B Track not present in AccurateRip database Copy OK

Track 5

Filename D:\LOSSLESS\John Coltrane - Best Of (3CD Emi Music France)\CD1\05.Like Someone In Love.wav

Peak level 97.7 % Track quality 100.0 % Test CRC CF8E4A09 Copy CRC CF8E4A09 Track not present in AccurateRip database Copy OK

Track 6

Filename D:\LOSSLESS\John Coltrane - Best Of (3CD Emi Music France)\CD1\06.Double Clutching.wav

Peak level 95.1 % Track quality 100.0 % Test CRC 6140588E Copy CRC 6140588E Track not present in AccurateRip database Copy OK

Track 7

Filename D:\LOSSLESS\John Coltrane - Best Of (3CD Emi Music France)\CD1\07.Just Friends.wav

Peak level 97.7 % Track quality 100.0 % Test CRC 046510A6 Copy CRC 046510A6 Track not present in AccurateRip database Copy OK

Track 8

Filename D:\LOSSLESS\John Coltrane - Best Of (3CD Emi Music France)\CD1\08.One and Four (aka Mr Day).wav

Peak level 97.7 % Track quality 100.0 % Test CRC B34E3308 Copy CRC B34E3308 Track not present in AccurateRip database Copy OK

None of the tracks are present in the AccurateRip database

No errors occurred

End of status report-------------------------------------------------------------------------------------------------------------------------------------------------------------------------------------------Exact Audio Copy V0.99 prebeta 5 from 4. May 2009

EAC extraction logfile from 14. February 2010, 15:06

John Coltrain / Best Of CD2 of 3CD

Used drive : TEAC CD-W54E Adapter: 0 ID: 0

Read mode : SecureUtilize accurate stream : YesDefeat audio cache : YesMake use of C2 pointers : No

Read offset correction : 685Overread into Lead-In and Lead-Out : NoFill up missing offset samples with silence : YesDelete leading and trailing silent blocks : NoNull samples used in CRC calculations : YesUsed interface : Installed external ASPI interfaceGap handling : Appended to previous track

Used output format : User Defined EncoderSelected bitrate : 1024 kBit/sQuality : HighAdd ID3 tag : NoCommand line compressor : C:\Program Files\Exact Audio Copy\Flac\flac.exeAdditional command line options : -V -8 -T "artist=%a" -T "title=%t" -T "album=%g" -T "date=%y" -T "tracknumber=%n" -T "genre=%m" %s

TOC of the extracted CD

Track | Start | Length | Start sector | End sector --------------------------------------------------------- 1 | 0:00.00 | 10:40.65 | 0 | 48064 2 | 10:40.65 | 9:55.52 | 48065 | 92741 3 | 20:36.42 | 9:08.19 | 92742 | 133860 4 | 29:44.61 | 7:13.43 | 133861 | 166378 5 | 36:58.29 | 7:56.59 | 166379 | 202137 6 | 44:55.13 | 7:05.61 | 202138 | 234073 7 | 52:00.74 | 7:11.32 | 234074 | 266430

Track 1

Filename D:\LOSSLESS\John Coltrane - Best Of (3CD Emi Music France)\CD2\01.Blue Train.wav

Pre-gap length 0:00:02.00

Peak level 87.4 % Track quality 99.9 % Test CRC 78E031C4 Copy CRC 78E031C4 Track not present in AccurateRip database Copy OK

Track 2

Filename D:\LOSSLESS\John Coltrane - Best Of (3CD Emi Music France)\CD2\02.Blue Train (Alternate Take).wav

Peak level 88.6 % Track quality 99.9 % Test CRC 5CF82218 Copy CRC 5CF82218 Track not present in AccurateRip database Copy OK

Track 3

Filename D:\LOSSLESS\John Coltrane - Best Of (3CD Emi Music France)\CD2\03.Moment's Notice.wav

Peak level 91.6 % Track quality 99.9 % Test CRC 4A65A132 Copy CRC 4A65A132 Track not present in AccurateRip database Copy OK

Track 4

Filename D:\LOSSLESS\John Coltrane - Best Of (3CD Emi Music France)\CD2\04.Locomotion.wav

Peak level 89.0 % Track quality 100.0 % Test CRC CDC0EAA0 Copy CRC CDC0EAA0 Track not present in AccurateRip database Copy OK

Track 5

Filename D:\LOSSLESS\John Coltrane - Best Of (3CD Emi Music France)\CD2\05.I'm Old Fashioned.wav

Peak level 87.5 % Track quality 100.0 % Test CRC 59A4CD64 Copy CRC 59A4CD64 Track not present in AccurateRip database Copy OK

Track 6

Filename D:\LOSSLESS\John Coltrane - Best Of (3CD Emi Music France)\CD2\06.Lazy Bird.wav

Peak level 97.7 % Track quality 100.0 % Test CRC 08C6316D Copy CRC 08C6316D Track not present in AccurateRip database Copy OK

Track 7

Filename D:\LOSSLESS\John Coltrane - Best Of (3CD Emi Music France)\CD2\07.Lazy Bird (Alternate Take).wav

Peak level 84.3 % Track quality 100.0 % Test CRC 6C897ABB Copy CRC 6C897ABB Track not present in AccurateRip database Copy OK

None of the tracks are present in the AccurateRip database

No errors occurred

End of status report-------------------------------------------------------------------------------------------------------------------------------------------------------------------------------------------Exact Audio Copy V0.99 prebeta 5 from 4. May 2009

EAC extraction logfile from 14. February 2010, 19:34

John Coltrane / Best of CD3 of 3CD

Used drive : TEAC CD-W54E Adapter: 0 ID: 0

Read mode : SecureUtilize accurate stream : YesDefeat audio cache : YesMake use of C2 pointers : No

Read offset correction : 685Overread into Lead-In and Lead-Out : NoFill up missing offset samples with silence : YesDelete leading and trailing silent blocks : NoNull samples used in CRC calculations : YesUsed interface : Installed external ASPI interfaceGap handling : Appended to previous track

Used output format : User Defined EncoderSelected bitrate : 1024 kBit/sQuality : HighAdd ID3 tag : NoCommand line compressor : C:\Program Files\Exact Audio Copy\Flac\flac.exeAdditional command line options : -V -8 -T "artist=%a" -T "title=%t" -T "album=%g" -T "date=%y" -T "tracknumber=%n" -T "genre=%m" %s

TOC of the extracted CD

Track | Start | Length | Start sector | End sector --------------------------------------------------------- 1 | 0:00.00 | 3:42.32 | 0 | 16681 2 | 3:42.32 | 13:29.47 | 16682 | 77403 3 | 17:12.04 | 7:54.22 | 77404 | 112975 4 | 25:06.26 | 4:30.19 | 112976 | 133244 5 | 29:36.45 | 11:00.46 | 133245 | 182790 6 | 40:37.16 | 7:28.08 | 182791 | 216398 7 | 48:05.24 | 6:31.43 | 216399 | 245766 8 | 54:36.67 | 8:09.74 | 245767 | 282515

Track 1

Filename D:\LOSSLESS\John Coltrane - Best Of (3CD Emi Music France)\CD3\01.Just for the Love.wav

Pre-gap length 0:00:02.00

Peak level 88.7 % Track quality 100.0 % Test CRC 93F20F4E Copy CRC 93F20F4E Track not present in AccurateRip database Copy OK

Track 2

Filename D:\LOSSLESS\John Coltrane - Best Of (3CD Emi Music France)\CD3\02.Sonny's Crib.wav

Peak level 81.3 % Track quality 100.0 % Test CRC 8AE0B158 Copy CRC 8AE0B158 Track not present in AccurateRip database Copy OK

Track 3

Filename D:\LOSSLESS\John Coltrane - Best Of (3CD Emi Music France)\CD3\03.Monk's Mood.wav

Peak level 97.7 % Track quality 100.0 % Test CRC ACB36816 Copy CRC ACB36816 Track not present in AccurateRip database Copy OK

Track 4

Filename D:\LOSSLESS\John Coltrane - Best Of (3CD Emi Music France)\CD3\04.Epistrophy.wav

Peak level 97.7 % Track quality 100.0 % Test CRC 01898919 Copy CRC 01898919 Track not present in AccurateRip database Copy OK

Track 5

Filename D:\LOSSLESS\John Coltrane - Best Of (3CD Emi Music France)\CD3\05.Smoke Stack.wav

Peak level 97.6 % Track quality 100.0 % Test CRC 4B777F42 Copy CRC 4B777F42 Track not present in AccurateRip database Copy OK

Track 6

Filename D:\LOSSLESS\John Coltrane - Best Of (3CD Emi Music France)\CD3\06.Come Rain or Come Shine.wav

Peak level 97.7 % Track quality 100.0 % Test CRC FB259196 Copy CRC FB259196 Track not present in AccurateRip database Copy OK

Track 7

Filename D:\LOSSLESS\John Coltrane - Best Of (3CD Emi Music France)\CD3\07.Nita.wav

Peak level 97.7 % Track quality 100.0 % Test CRC C0756D02 Copy CRC C0756D02 Track not present in AccurateRip database Copy OK

Track 8

Filename D:\LOSSLESS\John Coltrane - Best Of (3CD Emi Music France)\CD3\08.Ball Bearing.wav

Peak level 87.4 % Track quality 100.0 % Test CRC 7DE2F1DA Copy CRC 7DE2F1DA Track not present in AccurateRip database Copy OK

None of the tracks are present in the AccurateRip database

No errors occurred

End of status report
 
REM GENRE JazzREM DATE 2009REM DISCID 5E0E7808REM COMMENT "ExactAudioCopy v0.99pb5"PERFORMER "John Coltrane"TITLE "Best Of CD1 of 3CD"FILE "01.Trane`s Blues (aka John Paul Jones with Paul Chambers).wav" WAVE TRACK 01 AUDIO TITLE "Trane`s Blues (aka John Paul Jones with Paul Chambers)" PERFORMER "John Coltrane" FLAGS DCP INDEX 01 00:00:00FILE "02.Shifting Down.wav" WAVE TRACK 02 AUDIO TITLE "Shifting Down" PERFORMER "John Coltrane" FLAGS DCP INDEX 01 00:00:00FILE "03.Dexterity.wav" WAVE TRACK 03 AUDIO TITLE "Dexterity" PERFORMER "John Coltrane" FLAGS DCP INDEX 01 00:00:00FILE "04.Speak Low.wav" WAVE TRACK 04 AUDIO TITLE "Speak Low" PERFORMER "John Coltrane" FLAGS DCP INDEX 01 00:00:00FILE "05.Like Someone In Love.wav" WAVE TRACK 05 AUDIO TITLE "Like Someone In Love" PERFORMER "John Coltrane" FLAGS DCP INDEX 01 00:00:00FILE "06.Double Clutching.wav" WAVE TRACK 06 AUDIO TITLE "Double Clutching" PERFORMER "John Coltrane" FLAGS DCP INDEX 01 00:00:00FILE "07.Just Friends.wav" WAVE TRACK 07 AUDIO TITLE "Just Friends" PERFORMER "John Coltrane" FLAGS DCP INDEX 01 00:00:00FILE "08.One and Four (aka Mr Day).wav" WAVE TRACK 08 AUDIO TITLE "One and Four (aka Mr Day)" PERFORMER "John Coltrane" FLAGS DCP INDEX 01 00:00:00-------------------------------------------------------------------------------------------------------------------------------------------------------------------------------------------REM GENRE JazzREM DATE 2009REM DISCID 580DE007REM COMMENT "ExactAudioCopy v0.99pb5"PERFORMER "John Coltrain"TITLE "Best Of CD2 of 3CD"FILE "01.Blue Train.wav" WAVE TRACK 01 AUDIO TITLE "Blue Train" PERFORMER "John Coltrain" FLAGS DCP INDEX 01 00:00:00FILE "02.Blue Train (Alternate Take).wav" WAVE TRACK 02 AUDIO TITLE "Blue Train (Alternate Take)" PERFORMER "John Coltrain" FLAGS DCP INDEX 01 00:00:00FILE "03.Moment's Notice.wav" WAVE TRACK 03 AUDIO TITLE "Moment's Notice" PERFORMER "John Coltrain" FLAGS DCP INDEX 01 00:00:00FILE "04.Locomotion.wav" WAVE TRACK 04 AUDIO TITLE "Locomotion" PERFORMER "John Coltrain" FLAGS DCP INDEX 01 00:00:00FILE "05.I'm Old Fashioned.wav" WAVE TRACK 05 AUDIO TITLE "I'm Old Fashioned" PERFORMER "John Coltrain" FLAGS DCP INDEX 01 00:00:00FILE "06.Lazy Bird.wav" WAVE TRACK 06 AUDIO TITLE "Lazy Bird" PERFORMER "John Coltrain" FLAGS DCP INDEX 01 00:00:00FILE "07.Lazy Bird (Alternate Take).wav" WAVE TRACK 07 AUDIO TITLE "Lazy Bird (Alternate Take)" PERFORMER "John Coltrain" FLAGS DCP INDEX 01 00:00:00-------------------------------------------------------------------------------------------------------------------------------------------------------------------------------------------REM GENRE JazzREM DATE 2009REM DISCID 760EB608REM COMMENT "ExactAudioCopy v0.99pb5"PERFORMER "John Coltrane"TITLE "Best of CD3 of 3CD"FILE "01.Just for the Love.wav" WAVE TRACK 01 AUDIO TITLE "Just for the Love" PERFORMER "John Coltrane" FLAGS DCP INDEX 01 00:00:00FILE "02.Sonny's Crib.wav" WAVE TRACK 02 AUDIO TITLE "Sonny's Crib" PERFORMER "John Coltrane" FLAGS DCP INDEX 01 00:00:00FILE "03.Monk's Mood.wav" WAVE TRACK 03 AUDIO TITLE "Monk's Mood" PERFORMER "John Coltrane" FLAGS DCP INDEX 01 00:00:00FILE "04.Epistrophy.wav" WAVE TRACK 04 AUDIO TITLE "Epistrophy" PERFORMER "John Coltrane" FLAGS DCP INDEX 01 00:00:00FILE "05.Smoke Stack.wav" WAVE TRACK 05 AUDIO TITLE "Smoke Stack" PERFORMER "John Coltrane" FLAGS DCP INDEX 01 00:00:00FILE "06.Come Rain or Come Shine.wav" WAVE TRACK 06 AUDIO TITLE "Come Rain or Come Shine" PERFORMER "John Coltrane" FLAGS DCP INDEX 01 00:00:00FILE "07.Nita.wav" WAVE TRACK 07 AUDIO TITLE "Nita" PERFORMER "John Coltrane" FLAGS DCP INDEX 01 00:00:00FILE "08.Ball Bearing.wav" WAVE TRACK 08 AUDIO TITLE "Ball Bearing" PERFORMER "John Coltrane" FLAGS DCP INDEX 01 00:00:00
 
[CUETools log; Date: 13.02.2012 23:05:29; Version: 2.1.2a][CTDB TOCID: BFB8JC9tSsIWYURYxwVgvrjhf6Y-] found. [ CTDBID ] Status [92b18876] (3/3) Accurately ripped[AccurateRip ID: 001378e1-0081333e-5e0e7808] found.Track [ CRC ] Status 01 [a50c89e3] (3/3) Accurately ripped 02 [3d53558a] (3/3) Accurately ripped 03 [d79a9524] (3/3) Accurately ripped 04 [4a588ab3] (3/3) Accurately ripped 05 [d70d9d23] (3/3) Accurately ripped 06 [c645128d] (3/3) Accurately ripped 07 [a3f66ce4] (3/3) Accurately ripped 08 [9f7225b6] (3/3) Accurately ripped

Track Peak [ CRC32 ] [W/O NULL] [ LOG ] -- 97,7 [93D51E18] [4D90FB97] 01 92,5 [16FF7287] [6390C70A] CRC32 02 85,7 [0D8C2030] [599C92B2] CRC32 03 89,8 [17FCE6AE] [AEA43406] CRC32 04 97,3 [294ABE8B] [4211C477] CRC32 05 97,7 [CF8E4A09] [BDA3E6B0] CRC32 06 95,1 [6140588E] [07E0F56F] CRC32 07 97,7 [046510A6] [0AAFA157] CRC32 08 97,7 [B34E3308] [20DC72B7] CRC32-------------------------------------------------------------------------------------------------------------------------------------------------------------------------------------------[CUETools log; Date: 13.02.2012 23:07:32; Version: 2.1.2a][CTDB TOCID: DBSxUM9VjcCKMmoaM8rWyZqHyW0-] found. [ CTDBID ] Status [2d32b8c9] (3/3) Accurately ripped[AccurateRip ID: 0011738a-00669b8a-580de007] found.Track [ CRC ] Status 01 [6b115b4b] (3/3) Accurately ripped 02 [30967e6f] (3/3) Accurately ripped 03 [4372e9e3] (3/3) Accurately ripped 04 [97d2ff7c] (3/3) Accurately ripped 05 [6ee2eb08] (3/3) Accurately ripped 06 [a0ef4d7f] (3/3) Accurately ripped 07 [1e9d66bc] (3/3) Accurately ripped

Track Peak [ CRC32 ] [W/O NULL] [ LOG ] -- 97,7 [D9B8712D] [573CE593] 01 87,4 [78E031C4] [38DFA63C] CRC32 02 88,6 [5CF82218] [5D4596E1] CRC32 03 91,6 [4A65A132] [7161C2F2] CRC32 04 89,0 [CDC0EAA0] [414C08FF] CRC32 05 87,5 [59A4CD64] [BAD6D554] CRC32 06 97,7 [08C6316D] [CFEB91D8] CRC32 07 84,3 [6C897ABB] [E4A57AC0] CRC32-------------------------------------------------------------------------------------------------------------------------------------------------------------------------------------------[CUETools log; Date: 13.02.2012 23:09:27; Version: 2.1.2a][CTDB TOCID: _zpLuAj_ftmStVqNtIE5ciel9fs-] disk not present in database.[AccurateRip ID: 00135844-0081c2d9-760eb608] found.Track [ CRC ] Status 01 [0f0f9cfc] (3/3) Accurately ripped 02 [6f9b5887] (3/3) Accurately ripped 03 [b651f5ab] (3/3) Accurately ripped 04 [21c18a04] (3/3) Accurately ripped 05 [9f071c73] (3/3) Accurately ripped 06 [1f8abd38] (3/3) Accurately ripped 07 [a1bdab68] (3/3) Accurately ripped 08 [48b3476f] (3/3) Accurately ripped

Track Peak [ CRC32 ] [W/O NULL] [ LOG ] -- 97,7 [DC442AA6] [6CFA29FE] 01 88,7 [93F20F4E] [F8966A8B] CRC32 02 81,3 [8AE0B158] [E5B13760] CRC32 03 97,7 [ACB36816] [D7A2D62E] CRC32 04 97,7 [01898919] [9E8A7F19] CRC32 05 97,6 [4B777F42] [AAD1006C] CRC32 06 97,7 [FB259196] [F732AA37] CRC32 07 97,7 [C0756D02] [BD6CE95C] CRC32 08 87,4 [7DE2F1DA] [16981623] CRC32


Трекер:  [ 14-Фев-2012 09:49 ]

  

Скачать .torrent

Размер .torrent файла 13 KB


Размер: 1.14 GB
Хэш (hash) релиза: f1819abc982d9d763b7f55d40fdc8abd4a20c049

Еще никто не оставлял запись к записи скачать торрент John Coltrane - The Best of John Coltrane . Будь первым!

!Обратная связь