Скачать через торрент музыку Willis Jackson - Legends Of Acid Jazz - 1998, FLAC бесплатно без регистрации torrent

Если у вас наблюдаются проблемы со скриншотами, переходом по ссылками, скачиванием торрентов - проблемы в блокировщике рекламы AdBlock. #хорошегоДня!


Статистика раздачи
Размер:  457 MB   |    Зарегистрирован:  5 лет 8 месяцев   |    .torrent скачан:  36 раз   |   
Раздают:  1  
   
Загрузка...
 
Автор Сообщение

Umakiro

avatar Umakiro


Willis Jackson - Legends Of Acid Jazz

Жанр: Soul Jazz, Hard Bop
Год издания диска: 1998
Издатель (лейбл): Prestige Records
Номер по каталогу: PRCD-24198-2
Страна: US Miami, FL
Аудиокодек: FLAC (*.flac)
Тип рипа: tracks+.cue
Битрейт аудио: lossless
Продолжительность: 01:16:08
Источник (релизер): Guerrilla
Наличие сканов в содержимом раздачи: да
01. Blue Gator [09:12]
02. Try A Little Tenderness [05:57]
03. Gator's Tail [03:39]
04. This Nearly Was Mine [04:31]
05. East Breeze [10:01]
06. She's Funny That Way [05:10]
07. Mellow Blues [09:01]
08. Sportin' [04:47]
09. When I Fall In Love [04:02]
10. Cookin' Sherry [08:14]
11. Where Are You? [05:41]
12. Contrasts [05:47]

Recorded at Rudy Van Gelder's Studio, Hackensack and Englewood Cliffs, N.J. on May 25, 1959
 
Exact Audio Copy V0.99 prebeta 3 from 28. July 2007

EAC extraction logfile from 31. December 2007, 23:01

Willis Jackson / Legends Of Acid Jazz

Used drive : TSSTcorpDVD+-RW TS-H553A Adapter: 0 ID: 2

Read mode : SecureUtilize accurate stream : YesDefeat audio cache : YesMake use of C2 pointers : No

Read offset correction : 6Overread into Lead-In and Lead-Out : NoFill up missing offset samples with silence : YesDelete leading and trailing silent blocks : NoNull samples used in CRC calculations : YesUsed interface : Native Win32 interface for Win NT & 2000Gap handling : Appended to previous track

Used output format : User Defined EncoderSelected bitrate : 768 kBit/sQuality : HighAdd ID3 tag : NoCommand line compressor : C:\Program Files\Exact Audio Copy\FLAC\FLAC.EXEAdditional command line options : -6 -V -T "ARTIST=%a" -T "TITLE=%t" -T "ALBUM=%g" -T "DATE=%y" -T "TRACKNUMBER=%n" -T "GENRE=%m" -T "COMMENT=%e" %s -o %d

TOC of the extracted CD

Track | Start | Length | Start sector | End sector --------------------------------------------------------- 1 | 0:00.00 | 9:16.32 | 0 | 41731 2 | 9:16.32 | 6:01.55 | 41732 | 68861 3 | 15:18.12 | 3:42.70 | 68862 | 85581 4 | 19:01.07 | 4:33.60 | 85582 | 106116 5 | 23:34.67 | 10:04.25 | 106117 | 151441 6 | 33:39.17 | 5:14.55 | 151442 | 175046 7 | 38:53.72 | 9:04.20 | 175047 | 215866 8 | 47:58.17 | 4:51.00 | 215867 | 237691 9 | 52:49.17 | 4:05.70 | 237692 | 256136 10 | 56:55.12 | 8:19.45 | 256137 | 293606 11 | 65:14.57 | 5:45.03 | 293607 | 319484 12 | 70:59.60 | 5:47.07 | 319485 | 345516

Track 1

Filename K:\New Rips\Willis Jackson - Legends Of Acid Jazz (1959) [FLAC]\01 - Blue Gator.wav

Pre-gap length 0:00:02.00

Peak level 99.9 % Track quality 100.0 % Test CRC 2BD7BB75 Copy CRC 2BD7BB75 Track not present in AccurateRip database Copy OK

Track 2

Filename K:\New Rips\Willis Jackson - Legends Of Acid Jazz (1959) [FLAC]\02 - Try A Little Tenderness.wav

Pre-gap length 0:00:03.86

Peak level 77.8 % Track quality 100.0 % Test CRC F6A30061 Copy CRC F6A30061 Track not present in AccurateRip database Copy OK

Track 3

Filename K:\New Rips\Willis Jackson - Legends Of Acid Jazz (1959) [FLAC]\03 - Gator's Tail.wav

Pre-gap length 0:00:04.06

Peak level 77.5 % Track quality 100.0 % Test CRC 13DEA8D3 Copy CRC 13DEA8D3 Track not present in AccurateRip database Copy OK

Track 4

Filename K:\New Rips\Willis Jackson - Legends Of Acid Jazz (1959) [FLAC]\04 - This Nearly Was Mine.wav

Pre-gap length 0:00:03.26

Peak level 75.9 % Track quality 100.0 % Test CRC 5F18CBCE Copy CRC 5F18CBCE Track not present in AccurateRip database Copy OK

Track 5

Filename K:\New Rips\Willis Jackson - Legends Of Acid Jazz (1959) [FLAC]\05 - East Breeze.wav

Pre-gap length 0:00:02.56

Peak level 69.9 % Track quality 99.9 % Test CRC 85713D74 Copy CRC 85713D74 Track not present in AccurateRip database Copy OK

Track 6

Filename K:\New Rips\Willis Jackson - Legends Of Acid Jazz (1959) [FLAC]\06 - She's Funny That Way.wav

Pre-gap length 0:00:02.46

Peak level 74.3 % Track quality 100.0 % Test CRC B8F4CAB8 Copy CRC B8F4CAB8 Track not present in AccurateRip database Copy OK

Track 7

Filename K:\New Rips\Willis Jackson - Legends Of Acid Jazz (1959) [FLAC]\07 - Mellow Blues.wav

Pre-gap length 0:00:03.82

Peak level 89.1 % Track quality 99.9 % Test CRC 19EB2934 Copy CRC 19EB2934 Track not present in AccurateRip database Copy OK

Track 8

Filename K:\New Rips\Willis Jackson - Legends Of Acid Jazz (1959) [FLAC]\08 - Sportin'.wav

Pre-gap length 0:00:03.13

Peak level 67.6 % Track quality 100.0 % Test CRC 790A1B05 Copy CRC 790A1B05 Track not present in AccurateRip database Copy OK

Track 9

Filename K:\New Rips\Willis Jackson - Legends Of Acid Jazz (1959) [FLAC]\09 - When I Fall In Love.wav

Pre-gap length 0:00:03.16

Peak level 69.1 % Track quality 100.0 % Test CRC 882F20DA Copy CRC 882F20DA Track not present in AccurateRip database Copy OK

Track 10

Filename K:\New Rips\Willis Jackson - Legends Of Acid Jazz (1959) [FLAC]\10 - Cookin' Sherry.wav

Pre-gap length 0:00:03.53

Peak level 91.1 % Track quality 100.0 % Test CRC 06E7D9E6 Copy CRC 06E7D9E6 Track not present in AccurateRip database Copy OK

Track 11

Filename K:\New Rips\Willis Jackson - Legends Of Acid Jazz (1959) [FLAC]\11 - Where Are You .wav

Pre-gap length 0:00:05.06

Peak level 73.2 % Track quality 100.0 % Test CRC 0C66C1E1 Copy CRC 0C66C1E1 Track not present in AccurateRip database Copy OK

Track 12

Filename K:\New Rips\Willis Jackson - Legends Of Acid Jazz (1959) [FLAC]\12 - Contrasts.wav

Pre-gap length 0:00:03.17

Peak level 93.9 % Track quality 100.0 % Test CRC EEC1DC31 Copy CRC EEC1DC31 Track not present in AccurateRip database Copy OK

None of the tracks are present in the AccurateRip database

No errors occurred

End of status report
 
REM GENRE JazzREM DATE 1959REM DISCID 9311FE0CREM COMMENT "ExactAudioCopy v0.99pb3"PERFORMER "Willis Jackson"TITLE "Legends Of Acid Jazz (1959-1960)"FILE "01 - Blue Gator.wav" WAVE TRACK 01 AUDIO TITLE "Blue Gator" PERFORMER "Willis Jackson" INDEX 01 00:00:00 TRACK 02 AUDIO TITLE "Try A Little Tenderness" PERFORMER "Willis Jackson" INDEX 00 09:12:42FILE "02 - Try A Little Tenderness.wav" WAVE INDEX 01 00:00:00 TRACK 03 AUDIO TITLE "Gator's Tail" PERFORMER "Willis Jackson" INDEX 00 05:57:50FILE "03 - Gator's Tail.wav" WAVE INDEX 01 00:00:00 TRACK 04 AUDIO TITLE "This Nearly Was Mine" PERFORMER "Willis Jackson" INDEX 00 03:39:50FILE "04 - This Nearly Was Mine.wav" WAVE INDEX 01 00:00:00 TRACK 05 AUDIO TITLE "East Breeze" PERFORMER "Willis Jackson" INDEX 00 04:31:18FILE "05 - East Breeze.wav" WAVE INDEX 01 00:00:00 TRACK 06 AUDIO TITLE "She's Funny That Way" PERFORMER "Willis Jackson" INDEX 00 10:01:65FILE "06 - She's Funny That Way.wav" WAVE INDEX 01 00:00:00 TRACK 07 AUDIO TITLE "Mellow Blues" PERFORMER "Willis Jackson" INDEX 00 05:10:68FILE "07 - Mellow Blues.wav" WAVE INDEX 01 00:00:00 TRACK 08 AUDIO TITLE "Sportin'" PERFORMER "Willis Jackson" INDEX 00 09:01:10FILE "08 - Sportin'.wav" WAVE INDEX 01 00:00:00 TRACK 09 AUDIO TITLE "When I Fall In Love" PERFORMER "Willis Jackson" INDEX 00 04:47:63FILE "09 - When I Fall In Love.wav" WAVE INDEX 01 00:00:00 TRACK 10 AUDIO TITLE "Cookin' Sherry" PERFORMER "Willis Jackson" INDEX 00 04:02:30FILE "10 - Cookin' Sherry.wav" WAVE INDEX 01 00:00:00 TRACK 11 AUDIO TITLE "Where Are You?" PERFORMER "Willis Jackson" INDEX 00 08:14:40FILE "11 - Where Are You .wav" WAVE INDEX 01 00:00:00 TRACK 12 AUDIO TITLE "Contrasts" PERFORMER "Willis Jackson" INDEX 00 05:41:65FILE "12 - Contrasts.wav" WAVE INDEX 01 00:00:00
Willis "Gator" Jackson (tenor saxophone)
Bill Jennings (guitar)
Jack McDuff (organ)
Alvin Johnson, Bill Elliot (drums)
Buck Clarke (congas)


Трекер:  [ 14-Фев-2012 09:48 ]

  

Скачать .torrent

Размер .torrent файла 20 KB


Размер: 457 MB
Хэш (hash) релиза: 33d079c91445d8c73cf9565ac40ab13dda0e5964

Еще никто не оставлял запись к записи скачать торрент Willis Jackson - Legends Of Acid Jazz - 1998, FLAC . Будь первым!

!Обратная связь