Скачать через торрент музыку Guido Manusardi - The Village Fair - 1997, FLAC бесплатно без регистрации torrent

Если у вас наблюдаются проблемы со скриншотами, переходом по ссылками, скачиванием торрентов - проблемы в блокировщике рекламы AdBlock. #хорошегоДня!


Статистика раздачи
Размер:  350 MB   |    Зарегистрирован:  5 лет 8 месяцев   |    .torrent скачан:  25 раз   |   
Раздают:  1  
   
Загрузка...
 
Автор Сообщение

Umakiro

avatar Umakiro


Guido Manusardi - The Village Fair

Жанр: Post-Bop
Страна-производитель диска: Italy
Год издания диска: 1997
Издатель (лейбл): Soul Note
Номер по каталогу: 121331-2
Страна: Chiavenna, Lombardia, Italy
Аудиокодек: FLAC (*.flac)
Тип рипа: image+.cue
Битрейт аудио: lossless
Продолжительность: 00:59:27
Источник (релизер): bladerunner
Наличие сканов в содержимом раздачи: нет
01. Oas Dance [08:02]
02. Country Dance [06:09]
03. Three Basil Leaves (tk 1) [05:12]
04. Little Penny [04:37]
05. The Fair [02:23]
06. Balada [08:12]
07. Capite De Fоn [06:25]
08. Banat Mood [04:57]
09. Ciobanasca [04:54]
10. Gipsy Mood [02:27]
11. Three Basil Leaves (tk 2) [06:05]

Recorded at: Bips Studio, Milan, Italy (10/10/1996-10/12/1996)
 
Exact Audio Copy V1.0 beta 2 from 29. April 2011

EAC extraction logfile from 5. January 2012, 17:29

Guido Manusardi / The Village Fair

Used drive : PHILIPS DVD+-RW DVD8801 Adapter: 1 ID: 0

Read mode : SecureUtilize accurate stream : YesDefeat audio cache : YesMake use of C2 pointers : No

Read offset correction : 618Overread into Lead-In and Lead-Out : NoFill up missing offset samples with silence : YesDelete leading and trailing silent blocks : NoNull samples used in CRC calculations : YesUsed interface : Installed external ASPI interface

Used output format : User Defined EncoderSelected bitrate : 1024 kBit/sQuality : HighAdd ID3 tag : NoCommand line compressor : C:\Programmi\Exact Audio Copy\FLAC\FLAC.EXEAdditional command line options : -8 -V -T "ARTIST=%artist%" -T "TITLE=%title%" -T "ALBUM=%albumtitle%" -T "DATE=%year%" -T "TRACKNUMBER=%tracknr%" -T "GENRE=%genre%" -T "COMMENT=%comment%" %hascover%--picture="%coverfile%"%hascover% %source% -o %dest%

TOC of the extracted CD

Track | Start | Length | Start sector | End sector --------------------------------------------------------- 1 | 0:00.00 | 8:02.65 | 0 | 36214 2 | 8:02.65 | 6:09.12 | 36215 | 63901 3 | 14:12.02 | 5:12.38 | 63902 | 87339 4 | 19:24.40 | 4:37.40 | 87340 | 108154 5 | 24:02.05 | 2:23.32 | 108155 | 118911 6 | 26:25.37 | 8:12.28 | 118912 | 155839 7 | 34:37.65 | 6:25.35 | 155840 | 184749 8 | 41:03.25 | 4:57.07 | 184750 | 207031 9 | 46:00.32 | 4:54.25 | 207032 | 229106 10 | 50:54.57 | 2:27.60 | 229107 | 240191 11 | 53:22.42 | 6:05.10 | 240192 | 267576

Range status and errors

Selected range

Filename C:\Programmi\eMulescar\incoming\my rel\Guido Manusardi - The Village Fair - (1997 Soul Note)\Guido Manusardi - The Village Fair.wav

Peak level 99.9 % Extraction speed 5.8 X Range quality 99.9 % Copy CRC A5F86B7F Copy OK

No errors occurred

AccurateRip summary

Track 1 accurately ripped (confidence 1) [62E23D2D] (AR v2)Track 2 accurately ripped (confidence 1) [E36EF128] (AR v2)Track 3 accurately ripped (confidence 1) [A7ADAB08] (AR v2)Track 4 accurately ripped (confidence 1) [6D047BF9] (AR v2)Track 5 accurately ripped (confidence 1) [04B9B59D] (AR v2)Track 6 accurately ripped (confidence 1) [C2962DC2] (AR v2)Track 7 accurately ripped (confidence 1) [C605EED1] (AR v2)Track 8 accurately ripped (confidence 1) [117B2C5C] (AR v2)Track 9 accurately ripped (confidence 1) [598B57C0] (AR v2)Track 10 accurately ripped (confidence 1) [9C1E9025] (AR v2)Track 11 accurately ripped (confidence 1) [CF16CB9B] (AR v2)

All tracks accurately ripped

End of status report

==== Log checksum CC5051378275167EF0C6EC83DE0F26F321BEE4941DDF6D1AF0950BF26B572D62 ====
 
REM GENRE JazzREM DATE 1997REM DISCID 9E0DEF0BREM COMMENT "ExactAudioCopy v1.0b2"PERFORMER "Guido Manusardi"TITLE "The Village Fair"FILE "Guido Manusardi - The Village Fair.flac" WAVE TRACK 01 AUDIO TITLE "Oas Dance" PERFORMER "Guido Manusardi" INDEX 01 00:00:00 TRACK 02 AUDIO TITLE "Country Dance" PERFORMER "Guido Manusardi" FLAGS DCP INDEX 01 08:02:65 TRACK 03 AUDIO TITLE "Three Basil Leaves (tk 1)" PERFORMER "Guido Manusardi" FLAGS DCP INDEX 00 14:12:01 INDEX 01 14:12:02 TRACK 04 AUDIO TITLE "Little Penny" PERFORMER "Guido Manusardi" FLAGS DCP INDEX 00 19:24:39 INDEX 01 19:24:40 TRACK 05 AUDIO TITLE "The Fair" PERFORMER "Guido Manusardi" FLAGS DCP INDEX 00 24:02:04 INDEX 01 24:02:05 TRACK 06 AUDIO TITLE "Balada" PERFORMER "Guido Manusardi" FLAGS DCP INDEX 00 26:25:36 INDEX 01 26:25:37 TRACK 07 AUDIO TITLE "Capite De Fоn" PERFORMER "Guido Manusardi" FLAGS DCP INDEX 00 34:37:64 INDEX 01 34:37:65 TRACK 08 AUDIO TITLE "Banat Mood" PERFORMER "Guido Manusardi" FLAGS DCP INDEX 00 41:03:24 INDEX 01 41:03:25 TRACK 09 AUDIO TITLE "Ciobanasca" PERFORMER "Guido Manusardi" FLAGS DCP INDEX 00 46:00:31 INDEX 01 46:00:32 TRACK 10 AUDIO TITLE "Gipsy Mood" PERFORMER "Guido Manusardi" FLAGS DCP INDEX 00 50:54:56 INDEX 01 50:54:57 TRACK 11 AUDIO TITLE "Three Basil Leaves (tk 2)" PERFORMER "Guido Manusardi" FLAGS DCP INDEX 01 53:22:42
Guido Manusardi (piano)
Paolo Fresu (trumpet, flugelhorn)
Gianluigi Trovesi (clarinet, bass clarinet, saxophone, alto saxophone)
Roberto Rossi (trombone)
Furio Di Castri ( Bass )
Roberto Gatto (drums)


Трекер:  [ 14-Фев-2012 09:47 ]

  

Скачать .torrent

Размер .torrent файла 14 KB


Размер: 350 MB
Хэш (hash) релиза: 9750679ce46eef4398fa44556744a246659530c1

Еще никто не оставлял запись к записи скачать торрент Guido Manusardi - The Village Fair - 1997, FLAC . Будь первым!

!Обратная связь