Скачать через торрент музыку Электрома Daft Punks Electroma бесплатно без регистрации torrent

Если у вас наблюдаются проблемы со скриншотами, переходом по ссылками, скачиванием торрентов - проблемы в блокировщике рекламы AdBlock. #хорошегоДня!


Статистика раздачи
Размер:  5.05 GB   |    Зарегистрирован:  5 лет 8 месяцев   |    .torrent скачан:  34 раза   |   
Раздают:  1  
   
Загрузка...
 
Автор Сообщение

_N_

avatar _N_


Электрома / Daft Punk's Electroma

Страна: США, Франция
Жанр: фантастика, драма
Год выпуска: 2006
Продолжительность: 01:12:19

Перевод: Не требуется
Cубтитры: нет
Оригинальная аудиодорожка: английский

Режиссер: Томас Бангальтер, Гай-Мануэль д'Омем-Кристо / Thomas Bangalter, Guy-Manuel De Homem-Christo

В ролях: Питер Хартье, Майкл Рич, Хелена Стоддард, Вэнс Хартвелл, Лило Тайвай, Кен Бэнкс, Хоуи Адамс, Ритчи Лаго Батиста, Амир Бохари, Алина

Описание: Electroma — бессловесная и очень красивая сага о двух роботах, пытающихся превратиться в людей. Картину сравнивают с «Джерри» Гаса Ван-Сента и The Brown Bunny Винсента Галло из-за затяжных статичных планов, из-за которых на конкурсных показах в Каннах добрая половина зрителей покидала зал. Сильной стороной Electroma считается саунд-трек, в создании которого, к слову, Daft Punk участия не принимали, и работа оператора. В саундтрек вошли работы Rundgren, Brian Eno, Sebastien Tellier, Curtis Mayfield, Linda Perhacs и других музыкантов.

Качество видео: 720p BDRip
Формат видео: MKV

Видео: x.264, 1280x692 (1:1.85), NTSC 23.976, 8500 кбит/с
Аудио: DTS, 6ch, 48 kHz, 1536 кбит/с |ядро DTS-HD MA|
бщее
Уникальный идентификатор : 177278049434850044057317143673228507065 (0x855E82A8D90D2E59B3DA79843C5037B9)
Полное имя : G:\Фильмы HD\Daft.Punk's.Electroma.2006.BDrip.720p.AVC.DTS.mkv
Формат : Matroska
Размер файла : 5,05 Гбайт
Продолжительность : 1 ч. 12 м.
Общий поток : 10,0 Мбит/сек
Дата кодирования : UTC 2011-04-21 11:40:44
Программа кодирования : mkvmerge v4.6.0 ('Still Crazy After All These Years') сборка от Mar 10 2011 02:50:32
Библиотека кодирования : libebml v1.2.0 + libmatroska v1.1.0

Видео
Идентификатор : 1
Формат : AVC
Формат/Информация : Advanced Video Codec
Профиль формата : High@L4.1
Параметр CABAC формата : Да
Параметр ReFrames формата : 9 кадров
Режим смешивания : Header stripping
Идентификатор кодека : V_MPEG4/ISO/AVC
Продолжительность : 1 ч. 12 м.
Битрейт : 8500 Кбит/сек
Ширина : 1280 пикс.
Высота : 692 пикс.
Соотношение сторон : 1,850
Частота кадров : 23,976 кадр/сек
Цветовое пространство : YUV
Подвыборка цветности : 4:2:0
Битовая глубина : 8 бит
Тип развёртки : Прогрессивная
Бит/(Пиксели*Кадры) : 0.400
Размер потока : 4,19 Гбайт (83%)
Библиотека кодирования : x264 core 114 r1913 5fd3dce
Настройки программы : cabac=1 / ref=9 / deblock=1:-3:-3 / analyse=0x3:0x113 / me=umh / subme=10 / psy=1 / psy_rd=1.00:0.00 / mixed_ref=1 / me_range=24 / chroma_me=1 / trellis=2 / 8x8dct=1 / cqm=0 / deadzone=21,11 / fast_pskip=0 / chroma_qp_offset=-2 / threads=3 / sliced_threads=0 / nr=0 / decimate=1 / interlaced=0 / constrained_intra=0 / bframes=9 / b_pyramid=2 / b_adapt=2 / b_bias=0 / direct=3 / weightb=1 / open_gop=0 / weightp=2 / keyint=250 / keyint_min=23 / scenecut=40 / intra_refresh=0 / rc_lookahead=40 / rc=2pass / mbtree=1 / bitrate=8500 / ratetol=1.0 / qcomp=0.60 / qpmin=0 / qpmax=69 / qpstep=4 / cplxblur=20.0 / qblur=0.5 / vbv_maxrate=50000 / vbv_bufsize=50000 / nal_hrd=none / ip_ratio=1.40 / aq=1:0.60

Аудио
Идентификатор : 2
Формат : DTS
Формат/Информация : Digital Theater Systems
Режим смешивания : Header stripping
Идентификатор кодека : A_DTS
Продолжительность : 1 ч. 12 м.
Вид битрейта : Постоянный
Битрейт : 1510 Кбит/сек
Каналы : 6 каналов
Расположение каналов : Front: L C R, Side: L R, LFE
Частота : 48,0 КГц
Битовая глубина : 16 бит
Метод сжатия : С потерями
Размер потока : 781 Мбайт (15%)
Заголовок : DTS 5.1 @ 1510 кбит/c
Язык : English


Трекер:  [ 14-Фев-2012 16:22 ]

  

Скачать .torrent

Размер .torrent файла 25 KB


Размер: 5.05 GB
Хэш (hash) релиза: ad7b6f157aa9f6b2278482990c8d91001100a9d7

Еще никто не оставлял запись к записи скачать торрент Электрома Daft Punks Electroma . Будь первым!

!Обратная связь