Скачать через торрент музыку Jean Michel Jarre - Oxygen Live In Paris бесплатно без регистрации torrent

Если у вас наблюдаются проблемы со скриншотами, переходом по ссылками, скачиванием торрентов - проблемы в блокировщике рекламы AdBlock. #хорошегоДня!


Статистика раздачи
Размер:  2.25 GB   |    Зарегистрирован:  5 лет 8 месяцев   |    .torrent скачан:  41 раз   |   
Раздают:  1  
   
Загрузка...
 
Автор Сообщение

_N_

avatar _N_


Jean Michel Jarre - Oxygen Live In Paris

Жанр: Electronic
Продолжительность: 1:01:14
Год выпуска: 2009

Tracklisting:
01 Prelude
02 Oxygene 1
03 Oxygene 2
04 Oxygene 3
05 Variation I
06 Oxygene 4
07 Variation II
08 Oxygene 5
09 Variation III
10 Oxygene 6
11 Oxygene 12
12 Oxygene 13

Качество: HDTVRip
Контейнер: MKV
Видео кодек: H.264
Аудио кодек: AC3
Видео: AVC, 1280x720, 16:9, 5 000 Kbps, 25 fps
Аудио: AC3. 256 kbps, 48 kHz, 2 ch
 
GeneralUnique ID : 249603250127861204408345724021769156165 (0xBBC7D65D78B6D07AB0CC4178C7BEB645)Complete name : E:\Jean.Michel.Jarre.Oxygene.Live.In.Paris.720p.HDTV.x264.mkvFormat : MatroskaFormat version : Version 1File size : 2.25 GiBDuration : 1h 1mnOverall bit rate : 5 261 KbpsEncoded date : UTC 2008-04-25 13:15:40Writing application : mkvmerge v2.1.0 ('Another Place To Fall') built on Aug 19 2007 13:40:07Writing library : libebml v0.7.7 + libmatroska v0.8.1

VideoID : 1Format : AVCFormat/Info : Advanced Video CodecFormat profile : High@L5.1Format settings, CABAC : YesFormat settings, ReFrames : 3 framesCodec ID : V_MPEG4/ISO/AVCDuration : 1h 1mnBit rate : 5 000 KbpsWidth : 1 280 pixelsHeight : 720 pixelsDisplay aspect ratio : 16:9Frame rate : 25.000 fpsColor space : YUVChroma subsampling : 4:2:0Bit depth : 8 bitsScan type : ProgressiveBits/(Pixel*Frame) : 0.217Stream size : 2.10 GiB (93%)Writing library : x264 core 58 svn-736MEncoding settings : cabac=1 / ref=3 / deblock=1:-2:-1 / analyse=0x3:0x113 / me=umh / subme=6 / me-prepass=0 / brdo=0 / mixed_ref=0 / me_range=12 / chroma_me=1 / trellis=1 / 8x8dct=1 / cqm=2 / deadzone=21,11 / chroma_qp_offset=0 / threads=3 / nr=0 / decimate=1 / mbaff=0 / bframes=16 / b_pyramid=1 / b_adapt=1 / b_bias=0 / direct=3 / wpredb=1 / bime=0 / keyint=250 / keyint_min=25 / scenecut=40(pre) / rc=2pass / bitrate=5000 / ratetol=1.0 / rceq='blurCplx^(1-qComp)' / qcomp=1.00 / qpmin=10 / qpmax=51 / qpstep=4 / cplxblur=20.0 / qblur=0.5 / ip_ratio=1.40 / pb_ratio=1.30 / aq=1:0.5:13.0Language : EnglishDefault : YesForced : No

AudioID : 2Format : AC-3Format/Info : Audio Coding 3Mode extension : CM (complete main)Codec ID : A_AC3Duration : 1h 1mnBit rate mode : ConstantBit rate : 256 KbpsChannel(s) : 2 channelsChannel positions : Front: L RSampling rate : 48.0 KHzBit depth : 16 bitsCompression mode : LossyStream size : 112 MiB (5%)Default : YesForced : No


Трекер:  [ 14-Фев-2012 16:20 ]

  

Скачать .torrent

Размер .torrent файла 11 KB


Размер: 2.25 GB
Хэш (hash) релиза: b4aac44a56a2145152a8d3c1b35a14bacbe630a5

Торренты, похожие на Jean Michel Jarre - Oxygen Live In Paris скачать торрент

Форум Название Автор Размер S L Добавлен
Электронная музыка (video) ·· Jean Michel Jarre - "Oxygene" Live in Paris (2007) / Jean Michel Jarre - "Oxygene" Live in Paris (2007) [2007 г., Электронная музыка, HDTVRip] L 24165415402.25 GB 0 0 1294848480

19:08

12-Янв-11

Еще никто не оставлял запись к записи скачать торрент Jean Michel Jarre - Oxygen Live In Paris . Будь первым!

!Обратная связь