Скачать через торрент музыку LMFAO Ft. Natalia Kills - Champagne Showers бесплатно без регистрации torrent

Если у вас наблюдаются проблемы со скриншотами, переходом по ссылками, скачиванием торрентов - проблемы в блокировщике рекламы AdBlock. #хорошегоДня!


Статистика раздачи
Размер:  170 MB   |    Зарегистрирован:  5 лет 8 месяцев   |    .torrent скачан:  30 раз   |   
Раздают:  1  
   
Загрузка...
 
Автор Сообщение

_N_

avatar _N_


LMFAO Ft. Natalia Kills - Champagne Showers (MTVHD)

Жанр: Electro house, Hip-Hop, Dance-Pop
Продолжительность: 00:04:39
Год выпуска: 2011
Качество: HDTVRip
Контейнер: MKV
Видео кодек: H.264
Аудио кодек: MP2

Видео: V_MPEG4/ISO/AVC, 1280x720, 16:9, 4 735 Kbps, 23.976 fps.
Аудио: MP2, 384 Kbps, 48.0 KHz, 2 channels.
General
Unique ID : 202731921535842816530035410778033564662 (0x9884BF723D46CDD9A5F2615B0AF12BF6)
Complete name : D:\Раздачи\gege-1\LMFAO Ft. Natalia Kills\LMFAO Ft. Natalia Kills.mkv
Format : Matroska
Format version : Version 2
File size : 170 MiB
Duration : 4mn 39s
Overall bit rate : 5 108 Kbps
Encoded date : UTC 2011-12-20 22:35:11
Writing application : mkvmerge v4.5.0 ('Speed of Light') сборка от Feb 15 2011 12:50:20
Writing library : libebml v1.2.0 + libmatroska v1.1.0

Video
ID : 1
Format : AVC
Format/Info : Advanced Video Codec
Format profile : High@L3.1
Format settings, CABAC : Yes
Format settings, ReFrames : 4 frames
Codec ID : V_MPEG4/ISO/AVC
Duration : 4mn 39s
Bit rate : 4 735 Kbps
Width : 1 280 pixels
Height : 720 pixels
Display aspect ratio : 16:9
Frame rate : 23.976 fps
Color space : YUV
Chroma subsampling : 4:2:0
Bit depth : 8 bits
Scan type : Progressive
Bits/(Pixel*Frame) : 0.214
Stream size : 154 MiB (90%)
Writing library : x264 core 114 r1913 5fd3dce
Encoding settings : cabac=1 / ref=3 / deblock=1:-1:-1 / analyse=0x3:0x113 / me=hex / subme=7 / psy=1 / psy_rd=1.00:0.20 / mixed_ref=1 / me_range=16 / chroma_me=1 / trellis=1 / 8x8dct=1 / cqm=0 / deadzone=21,11 / fast_pskip=1 / chroma_qp_offset=-3 / threads=6 / sliced_threads=0 / nr=0 / decimate=0 / interlaced=0 / constrained_intra=0 / bframes=3 / b_pyramid=2 / b_adapt=1 / b_bias=0 / direct=1 / weightb=1 / open_gop=0 / weightp=2 / keyint=250 / keyint_min=23 / scenecut=40 / intra_refresh=0 / rc_lookahead=40 / rc=2pass / mbtree=1 / bitrate=4735 / ratetol=1.0 / qcomp=0.60 / qpmin=0 / qpmax=69 / qpstep=4 / cplxblur=20.0 / qblur=0.5 / vbv_maxrate=17500 / vbv_bufsize=14000 / nal_hrd=none / ip_ratio=1.40 / aq=1:1.00

Audio
ID : 2
Format : MPEG Audio
Format version : Version 1
Format profile : Layer 2
Codec ID : A_MPEG/L2
Codec ID/Hint : MP2
Duration : 4mn 39s
Bit rate mode : Constant
Bit rate : 384 Kbps
Channel(s) : 2 channels
Sampling rate : 48.0 KHz
Compression mode : Lossy
Stream size : 12.8 MiB (8%)


Трекер:  [ 14-Фев-2012 16:19 ]

  

Скачать .torrent

Размер .torrent файла 13 KB


Размер: 170 MB
Хэш (hash) релиза: 252e2a67d273b87ddc313a1f2947ba46aaa623fd

Торренты, похожие на LMFAO Ft. Natalia Kills - Champagne Showers скачать торрент

Форум Название Автор Размер S L Добавлен
Электронная музыка (video) ·· LMFAO ft.Natalia Kills- Champagne Showers [2011, Hip hop,Electro house, HDTVRip] _N_ 158052710151 MB 0 0 1329194589

07:43

14-Фев-12

Еще никто не оставлял запись к записи скачать торрент LMFAO Ft. Natalia Kills - Champagne Showers . Будь первым!

!Обратная связь