Скачать через торрент музыку Gotan Project - Tango 3.0 Live At The Casino De Paris бесплатно без регистрации torrent

Если у вас наблюдаются проблемы со скриншотами, переходом по ссылками, скачиванием торрентов - проблемы в блокировщике рекламы AdBlock. #хорошегоДня!


Статистика раздачи
Размер:  7.95 GB   |    Зарегистрирован:  5 лет 8 месяцев   |    .torrent скачан:  34 раза   |   
Раздают:  1  
   
Загрузка...
 
Автор Сообщение

uzi2009

avatar uzi2009


Gotan Project - Tango 3.0 Live At The Casino De Paris



Жанр: Tango Nuevo, Chillout Downtempo
Продолжительность: 01:41:51
Год выпуска: 2011

Описание: Шесть лет назад Gotan Project буквально вихрем ворвался в мир современной музыки, проделав стремительный путь из прокуренных парижских клубов и плейлистов андерграундных диск-жокеев в хит-парады ведущих радиостанций планеты и рекламные ролики мировых брендов. Удивительный, ни на что не похожий замес из аргентинского танго, милонги, чакареры, фолк-музыки и электронных ритмов, неподражаемого звучания гармошки-бандонеона, скрипки и классической гитары, скрещённого с дабом, трип-хопом и хаусом, просто сражает наповал. Творческое наследие главного классика музыки танго, аргентинского композитора Астора Пьяцоллы оказалось настолько к месту в начале двадцать первого века, что все не переставали удивляться – почему же это не пришло в голову никому раньше... Выступление в «Казино де Пари» это музыка для интернет-поколения, микс технологий и традиций. Над видеорядом работала видеохудожница Приска Лобджой, оказавшая немалое влияние на эстетическое восприятие творчества группы с самого начала её существования. «Я очень люблю изменять аранжировки для выступлений в разных странах. Это как приготовление пищи: чтобы получилось что-то интересное, нужно экспериментировать с ингредиентами. К тому же в музыке танго, так же как в джазе, сильно импровизационное начало. Именно поэтому концерты Gotan Project никогда не похожи друг на друга.»

01. Intro / Cuesta Abajo
02. Epoca
03. Divan
04. Tango Square
05. Rayuela
06. Una Musica Brutal
07. Erase Una Vez
08. Tu Misterio
09. De Hombre A Hombre
10. Toda Mi Vida
11. Mi Confesion
12. La Gloria
13. Diferente
14. La Musica De Siempr E
15. El Mensajero
16. Panamericana / Triptico
17. Mil Millones / Queremos Paz
18. Desilusion
19. Peligro
20. Santa Maria (Del Buen Ayre)
21. Inmigrante
Качество: BDRip 1080p.
Контейнер: MKV
Видео кодек: H.264
Аудио кодек: DTS
Видео: x.264, 1920x1056, 9666 kbps, 24 FPS
Аудио: DTS, 1510 kbps, 48.0 kHz, 6 ch
Сэмпл: Multi-Up
Общее
Уникальный идентификатор : 228145118721110583347965309176201160760 (0xABA326CE04777964B720F93ECAD12838)
Полное имя : D:\Videos\Club Music HD Video\Gotan.Project.-.Tango.3.0.Live.At.The.Casino.De.Paris.BDRip.1080p.DTS.mkv
Формат : Matroska
Размер файла : 7,95 Гбайт
Продолжительность : 1 ч. 41 м.
Общий поток : 11,2 Мбит/сек
Название фильма : Gotan.Project.-.Tango.3.0.Live.At.The.Casino.De.Paris.BDRip.1080p.DTS
Дата кодирования : UTC 2011-12-06 09:19:34
Программа кодирования : mkvmerge v5.1.0 ('And so it goes') built on Nov 28 2011 23:58:28
Библиотека кодирования : libebml v1.2.3 + libmatroska v1.3.0

Видео
Идентификатор : 1
Формат : AVC
Формат/Информация : Advanced Video Codec
Профиль формата : High@L4.1
Параметр CABAC формата : Да
Параметр ReFrames формата : 4 кадра
Идентификатор кодека : V_MPEG4/ISO/AVC
Продолжительность : 1 ч. 41 м.
Битрейт : 9666 Кбит/сек
Ширина : 1920 пикс.
Высота : 1056 пикс.
Соотношение сторон : 16:9
Частота кадров : 24,000 кадр/сек
Цветовое пространство : YUV
Подвыборка цветности : 4:2:0
Битовая глубина : 8 бит
Тип развёртки : Прогрессивная
Бит/(Пиксели*Кадры) : 0.199
Размер потока : 6,72 Гбайт (85%)
Заголовок : Gotan Project - Tango 3.0 Live At The Casino De Paris
Библиотека кодирования : x264 core 116 r2074 2641b9e
Настройки программы : cabac=1 / ref=4 / deblock=1:-2:-1 / analyse=0x3:0x113 / me=umh / subme=9 / psy=1 / psy_rd=1.00:0.00 / mixed_ref=1 / me_range=32 / chroma_me=1 / trellis=2 / 8x8dct=1 / cqm=0 / deadzone=21,11 / fast_pskip=0 / chroma_qp_offset=-5 / threads=6 / sliced_threads=0 / nr=0 / decimate=1 / interlaced=0 / bluray_compat=0 / constrained_intra=0 / bframes=5 / b_pyramid=2 / b_adapt=2 / b_bias=0 / direct=3 / weightb=1 / open_gop=0 / weightp=2 / keyint=250 / keyint_min=24 / scenecut=40 / intra_refresh=0 / rc_lookahead=110 / rc=2pass / mbtree=1 / bitrate=9666 / ratetol=1.0 / qcomp=0.60 / qpmin=10 / qpmax=51 / qpstep=4 / cplxblur=20.0 / qblur=0.5 / vbv_maxrate=50000 / vbv_bufsize=50000 / nal_hrd=none / ip_ratio=1.40 / aq=1:1.00
Язык : French

Аудио
Идентификатор : 2
Формат : DTS
Формат/Информация : Digital Theater Systems
Идентификатор кодека : A_DTS
Продолжительность : 1 ч. 41 м.
Вид битрейта : Постоянный
Битрейт : 1510 Кбит/сек
Каналы : 6 каналов
Расположение каналов : Front: L C R, Side: L R, LFE
Частота : 48,0 КГц
Битовая глубина : 24 бит
Метод сжатия : С потерями
Размер потока : 1,07 Гбайт (14%)
Заголовок : DTS, 1510 kbps, 48.0 kHz, 6 ch
Язык : French


Трекер:  [ 14-Фев-2012 21:46 ]

  

Скачать .torrent

Размер .torrent файла 40 KB


Размер: 7.95 GB
Хэш (hash) релиза: 3b3eba32968d7a11424d29642a9ce2f4847919f6

Торренты, похожие на Gotan Project - Tango 3.0 Live At The Casino De Paris скачать торрент

Форум Название Автор Размер S L Добавлен
Электронная музыка ·· Gotan Project - Tango 3.0 Live At The Casino De Paris [2011, Tango Nuevo, Chillout Downtempo, BDRip 720p] Galfimbul 73274114976.82 GB 0 0 1334992320

10:12

21-Апр-12

bot

Топик был перенесен в форум Электронная музыка (video)

Перенес uzi2009

Хотите добавить комментарий к записи скачать торрент Gotan Project - Tango 3.0 Live At The Casino De Paris

!Обратная связь