Скачать порно через торрент Rinkan Gakuen: "Yamete! ...Okaa-san, Minai de!" Школа баловства UnionPeer.org бесплатно онлайн HD качество

Скачать новое порно 2015, 2014 новинки через торрент UnionPeer.org

Порно торрент бесплатно ЮнионПир.орг

Если у вас наблюдаются проблемы со скриншотами, переходом по ссылками, скачиванием торрентов - проблемы в блокировщике рекламы AdBlock. #хорошегоДня!


Статистика раздачи
Размер:  1.47 GB   |    Зарегистрирован:  5 лет 6 месяцев   |    .torrent скачан:  241 раз   |   
Раздают:  1  
   
Загрузка...
 
Автор Сообщение

Galfimbul

avatar Galfimbul


輪奸学園 「やめてっ! ...お母さん, 見ないで!」 | Rinkan Gakuen: "Yamete! ...Okaa-san, Minai de!" | Школа баловства


Год выпуска: 2005
Страна: Япония
Жанр: rape, gangbang, students, teachers, interracial
Продолжительность: >1 эп. 30 мин.
Субтитры: Отсутствуют
Цензура: Присутствует
Студия: Himajin
Описание:
The afro dudes at the school enjoys having sex with both teacher and students, and luckily for us there’s a hot blue haired teacher who happens to be caught by them. Tied up in a rope on the school ground, they fuck her until she begins to enjoy it. Lots of black screens with her thoughts also.
Информационные ссылки: AniDB || MAL || World Art
Исходник: DVD-5
Видео: MPEG2 | NTSC | 4x3 | 720x480 | 40.0 Mbps
Аудио JAP: AC-3 | 48000Hz | 192 Kbps | 2ch
01. OVA 1
General
Complete name : H:\VIDEO_TS\VTS_01_1.VOB
Format : MPEG-PS
File size : 1 024 MiB
Duration : 3mn 29s
Overall bit rate mode : Variable
Overall bit rate : 41.0 Mbps

Video
ID : 224 (0xE0)
Format : MPEG Video
Format version : Version 2
Format profile : Main@Main
Format settings, BVOP : Yes
Format settings, Matrix : Custom
Format settings, GOP : M=3, N=15
Duration : 3mn 29s
Bit rate mode : Variable
Bit rate : 40.0 Mbps
Maximum bit rate : 9 000 Kbps
Width : 720 pixels
Height : 480 pixels
Display aspect ratio : 4:3
Frame rate : 29.970 fps
Standard : NTSC
Color space : YUV
Chroma subsampling : 4:2:0
Bit depth : 8 bits
Scan type : Interlaced
Scan order : Top Field First
Compression mode : Lossy
Bits/(Pixel*Frame) : 3.861
Stream size : 999 MiB (98%)

Audio
ID : 189 (0xBD)-128 (0x80)
Format : AC-3
Format/Info : Audio Coding 3
Mode extension : CM (complete main)
Muxing mode : DVD-Video
Duration : 3mn 29s
Bit rate mode : Constant
Bit rate : 192 Kbps
Channel(s) : 2 channels
Channel positions : Front: L R
Sampling rate : 48.0 KHz
Bit depth : 16 bits
Compression mode : Lossy
Delay relative to video : -66ms
Stream size : 4.79 MiB (0%)


Трекер:  [ 13-Фев-2012 15:21 ]

  

Скачать .torrent

Размер .torrent файла 15 KB


Размер: 1.47 GB
Хэш (hash) релиза: 614a036756525553afb196d9c665625287d59fbe

Торренты, похожие на Rinkan Gakuen: "Yamete! ...Okaa-san, Minai de!" Школа баловства скачать торрент

Форум Название Автор Размер S L Добавлен
Хентай, порно и эротические мультфильмы ·· Rinkan Gakuen: "Yamete! ...Okaa-san, Minai de!" / Gangrape School / Школа баловства (Yokoyama Hiromi, Satou Mitsutoshi, Himajin) (ep. 1 of 1) [cen] [2005 г., Bondage, Students, Teachers, Gangbang, Large Breasts, Rape, DVDRip] [jap / eng] Galfimbul 115519708110 MB 0 0 1345973460

12:31

26-Авг-12

Еще никто не оставлял запись к записи скачать торрент Rinkan Gakuen: "Yamete! ...Okaa-san, Minai de!" Школа баловства . Будь первым!

!Обратная связь