Скачать через торрент музыку Richard "Groove" Holmes - Somethin Special бесплатно без регистрации torrent

Если у вас наблюдаются проблемы со скриншотами, переходом по ссылками, скачиванием торрентов - проблемы в блокировщике рекламы AdBlock. #хорошегоДня!


Статистика раздачи
Размер:  312 MB   |    Зарегистрирован:  5 лет 8 месяцев   |    .torrent скачан:  35 раз   |   
Раздают:  1  
   
Загрузка...
 
Автор Сообщение

Umakiro

avatar Umakiro


Richard "Groove" Holmes – Somethin' Special (1962)

Жанр: Soul Jazz, Hammond
Год издания диска: 1997
Издатель (лейбл): Pacific Jazz
Номер по каталогу: CDP 7243 8 55452 2 1
Аудиокодек: FLAC (*.flac)
Тип рипа: tracks+.cue
Битрейт аудио: lossless
Продолжительность: 47:08
Источник: вата
Наличие сканов в содержимом раздачи: да

Треклист:
01. Something Special (9:12)
02. Black Groove (5:46)
03. Me & Groove (3:12)
04. Comin' Through The Apple (5:17)
05. I Though I Knew You (6:30)
06. Carma (5:27)
07. Blow The Man Down (5:42)
08. Satin Doll (6:02)

Personnel:
Richard "Groove" Holmes - org
Lawrence 'Tricky' Lofton - tb (8)
Clifford Scott - as & ts (1-6)
Ben Webster - ts (8)
Les McCann - p (1-6, 8)
Joe Pass - g (1-6)
Gene Edwards - g (7)
George Freeman - g (8)
Ron Jefferson - d (1-6, 8)
Leroy Henderson - d (7)

Rec.: April, 1962 (#1-6); February 20, 1962 (#7); March, 1961 (#8).
 
 
Exact Audio Copy V0.99 prebeta 5 from 4. May 2009

EAC extraction logfile from 27. December 2010, 20:22

Richard "Groove" Holmes / Somethin' Special

Used drive : TDK DVDRW0404N Adapter: 4 ID: 1

Read mode : SecureUtilize accurate stream : YesDefeat audio cache : YesMake use of C2 pointers : No

Read offset correction : 48Overread into Lead-In and Lead-Out : NoFill up missing offset samples with silence : YesDelete leading and trailing silent blocks : NoNull samples used in CRC calculations : YesUsed interface : Native Win32 interface for Win NT & 2000Gap handling : Appended to previous track

Used output format : User Defined EncoderSelected bitrate : 128 kBit/sQuality : HighAdd ID3 tag : NoCommand line compressor : C:\Program Files\Exact Audio Copy\Flac\flac.exeAdditional command line options : -V -8 -T "artist=%a" -T "title=%t" -T "album=%g" -T "date=%y" -T "tracknumber=%n" -T "genre=%m" %s

TOC of the extracted CD

Track | Start | Length | Start sector | End sector --------------------------------------------------------- 1 | 0:00.00 | 9:12.02 | 0 | 41401 2 | 9:12.02 | 5:46.13 | 41402 | 67364 3 | 14:58.15 | 3:11.62 | 67365 | 81751 4 | 18:10.02 | 5:17.13 | 81752 | 105539 5 | 23:27.15 | 6:30.02 | 105540 | 134791 6 | 29:57.17 | 5:26.73 | 134792 | 159314 7 | 35:24.15 | 5:41.57 | 159315 | 184946 8 | 41:05.72 | 6:01.60 | 184947 | 212081

Track 1

Filename C:\EACrips\Richard 'Groove' Holmes - 1962 - Somethin' Special [FLAC]\01 - Something Special.wav

Pre-gap length 0:00:02.00

Peak level 92.1 % Track quality 100.0 % Test CRC 2413D3B8 Copy CRC 2413D3B8 Accurately ripped (confidence 2) [95147A73] Copy OK

Track 2

Filename C:\EACrips\Richard 'Groove' Holmes - 1962 - Somethin' Special [FLAC]\02 - Black Groove.wav

Pre-gap length 0:00:01.26

Peak level 92.0 % Track quality 100.0 % Test CRC 1FF4461C Copy CRC 1FF4461C Accurately ripped (confidence 2) [880FE864] Copy OK

Track 3

Filename C:\EACrips\Richard 'Groove' Holmes - 1962 - Somethin' Special [FLAC]\03 - Me & Groove.wav

Pre-gap length 0:00:01.97

Peak level 89.2 % Track quality 100.0 % Test CRC FFADC85C Copy CRC FFADC85C Accurately ripped (confidence 2) [9F9DA2F5] Copy OK

Track 4

Filename C:\EACrips\Richard 'Groove' Holmes - 1962 - Somethin' Special [FLAC]\04 - Comin' Through The Apple.wav

Pre-gap length 0:00:02.29

Peak level 91.1 % Track quality 100.0 % Test CRC D36E6494 Copy CRC D36E6494 Accurately ripped (confidence 2) [22ED7D3B] Copy OK

Track 5

Filename C:\EACrips\Richard 'Groove' Holmes - 1962 - Somethin' Special [FLAC]\05 - I Though I Knew You.wav

Pre-gap length 0:00:01.70

Peak level 89.3 % Track quality 99.7 % Test CRC D3F75180 Copy CRC D3F75180 Accurately ripped (confidence 2) [B262EA7D] Copy OK

Track 6

Filename C:\EACrips\Richard 'Groove' Holmes - 1962 - Somethin' Special [FLAC]\06 - Carma.wav

Pre-gap length 0:00:01.73

Peak level 95.0 % Track quality 100.0 % Test CRC D1247BED Copy CRC D1247BED Accurately ripped (confidence 2) [FE5D3C7A] Copy OK

Track 7

Filename C:\EACrips\Richard 'Groove' Holmes - 1962 - Somethin' Special [FLAC]\07 - Blow The Man Down.wav

Pre-gap length 0:00:02.24

Peak level 88.9 % Track quality 100.0 % Test CRC B2E8F787 Copy CRC B2E8F787 Accurately ripped (confidence 2) [AFF79AEA] Copy OK

Track 8

Filename C:\EACrips\Richard 'Groove' Holmes - 1962 - Somethin' Special [FLAC]\08 - Satin Doll.wav

Pre-gap length 0:00:01.86

Peak level 88.1 % Track quality 100.0 % Test CRC DEE71DEF Copy CRC DEE71DEF Accurately ripped (confidence 2) [732FA1AE] Copy OK

All tracks accurately ripped

No errors occurred

End of status report
 
REM GENRE JazzREM DATE 1962REM DISCID 6B0B0B08REM COMMENT "ExactAudioCopy v0.99pb5"FILE "01 - Something Special.wav" WAVE TRACK 01 AUDIO INDEX 01 00:00:00 TRACK 02 AUDIO INDEX 00 09:10:57FILE "02 - Black Groove.wav" WAVE INDEX 01 00:00:00 TRACK 03 AUDIO INDEX 00 05:44:15FILE "03 - Me & Groove.wav" WAVE INDEX 01 00:00:00 TRACK 04 AUDIO INDEX 00 03:09:40FILE "04 - Comin' Through The Apple.wav" WAVE INDEX 01 00:00:00 TRACK 05 AUDIO INDEX 00 05:15:35FILE "05 - I Though I Knew You.wav" WAVE INDEX 01 00:00:00 TRACK 06 AUDIO INDEX 00 06:28:22FILE "06 - Carma.wav" WAVE INDEX 01 00:00:00 TRACK 07 AUDIO INDEX 00 05:24:55FILE "07 - Blow The Man Down.wav" WAVE INDEX 01 00:00:00 TRACK 08 AUDIO INDEX 00 05:39:67FILE "08 - Satin Doll.wav" WAVE INDEX 01 00:00:00


Трекер:  [ 12-Фев-2012 16:55 ]

  

Скачать .torrent

Размер .torrent файла 13 KB


Размер: 312 MB
Хэш (hash) релиза: 698ef015ebdd6a5cef0bde22490b5f06a0218d18

Еще никто не оставлял запись к записи скачать торрент Richard "Groove" Holmes - Somethin Special . Будь первым!

!Обратная связь