Скачать через торрент музыку Shirley Scott - Great Scott! бесплатно без регистрации torrent

Если у вас наблюдаются проблемы со скриншотами, переходом по ссылками, скачиванием торрентов - проблемы в блокировщике рекламы AdBlock. #хорошегоДня!


Статистика раздачи
Размер:  310 MB   |    Зарегистрирован:  5 лет 8 месяцев   |    .torrent скачан:  38 раз   |   
Раздают:  1  
   
Загрузка...
 
Автор Сообщение

Umakiro

avatar Umakiro


Shirley Scott – Great Scott! (1991)

Жанр: Post-Bop, Hammond
Год издания диска: 1996
Издатель (лейбл): Muse
Номер по каталогу: MCD 5434
Аудиокодек: FLAC (*.flac)
Тип рипа: tracks+.cue
Битрейт аудио: lossless
Продолжительность: 51:53
Источник: сеть
Наличие сканов в содержимом раздачи: да

Треклист:
01. Skylark (6:59)
02. Triste (6:23)
03. More Than You Know (5:35)
04. Blues For Groove (5:49)
05. Have You Met Miss Jones? (7:42)
06. I Could Have Told You (6:33)
07. Don't Misunderstand Me (5:51)
08. Your Is My Heart Alone (7:01)

Personnel:
Shirley Scott - org (1-7), p (8)
Buck Hill - ts (3, 5)
Arthur Harper - b
Mickey Roker - d

Rec.: Van Gelder Studio, Englewood Cliffs, NJ, July 7, 1991.
 
 
Exact Audio Copy V0.99 prebeta 5 from 4. May 2009

EAC extraction logfile from 4. November 2010, 22:48

Shirley Scott / Great Scott

Used drive : TSSTcorpCDDVDW SH-S203N Adapter: 0 ID: 2

Read mode : SecureUtilize accurate stream : YesDefeat audio cache : YesMake use of C2 pointers : No

Read offset correction : 6Overread into Lead-In and Lead-Out : NoFill up missing offset samples with silence : YesDelete leading and trailing silent blocks : NoNull samples used in CRC calculations : YesUsed interface : Installed external ASPI interfaceGap handling : Appended to previous track

Used output format : User Defined EncoderSelected bitrate : 768 kBit/sQuality : HighAdd ID3 tag : NoCommand line compressor : C:\Program Files\Exact Audio Copy\Flac\flac.exeAdditional command line options : -8 -V -T "ARTIST=%a" -T "TITLE=%t" -T "ALBUM=%g" -T "DATE=%y" -T "TRACKNUMBER=%n" -T "TOTALTRACKS=%x" -T "GENRE=%m" -T "ALBUMARTIST=%v" -T "ALBUM ARTIST=%v" -T "COMMENT=EAC V0.99 pb5, Secure Mode, Test & Copy, AccurateRip,

TOC of the extracted CD

Track | Start | Length | Start sector | End sector --------------------------------------------------------- 1 | 0:00.00 | 6:59.00 | 0 | 31424 2 | 6:59.00 | 6:23.00 | 31425 | 60149 3 | 13:22.00 | 5:35.00 | 60150 | 85274 4 | 18:57.00 | 5:49.00 | 85275 | 111449 5 | 24:46.00 | 7:42.00 | 111450 | 146099 6 | 32:28.00 | 6:33.00 | 146100 | 175574 7 | 39:01.00 | 5:51.00 | 175575 | 201899 8 | 44:52.00 | 7:00.42 | 201900 | 233441

Track 1

Filename J:\New Rips\Shirley Scott - Great Scott (1996) [FLAC] {Muse MCD 5434 rec 1991}\01 - Skylark.wav

Pre-gap length 0:00:02.00

Peak level 88.7 % Track quality 100.0 % Test CRC A68E41A8 Copy CRC A68E41A8 Track not present in AccurateRip database Copy OK

Track 2

Filename J:\New Rips\Shirley Scott - Great Scott (1996) [FLAC] {Muse MCD 5434 rec 1991}\02 - Triste.wav

Pre-gap length 0:00:02.53

Peak level 89.0 % Track quality 100.0 % Test CRC 4505B540 Copy CRC 4505B540 Track not present in AccurateRip database Copy OK

Track 3

Filename J:\New Rips\Shirley Scott - Great Scott (1996) [FLAC] {Muse MCD 5434 rec 1991}\03 - More Than You Know.wav

Pre-gap length 0:00:00.60

Peak level 88.2 % Track quality 100.0 % Test CRC 874ED458 Copy CRC 874ED458 Track not present in AccurateRip database Copy OK

Track 4

Filename J:\New Rips\Shirley Scott - Great Scott (1996) [FLAC] {Muse MCD 5434 rec 1991}\04 - Blues For Groove.wav

Pre-gap length 0:00:02.77

Peak level 88.2 % Track quality 99.9 % Test CRC E658F5FA Copy CRC E658F5FA Track not present in AccurateRip database Copy OK

Track 5

Filename J:\New Rips\Shirley Scott - Great Scott (1996) [FLAC] {Muse MCD 5434 rec 1991}\05 - Have You Met Miss Jones.wav

Pre-gap length 0:00:02.77

Peak level 88.2 % Track quality 100.0 % Test CRC 5E016FB1 Copy CRC 5E016FB1 Track not present in AccurateRip database Copy OK

Track 6

Filename J:\New Rips\Shirley Scott - Great Scott (1996) [FLAC] {Muse MCD 5434 rec 1991}\06 - I Could Have Told You.wav

Pre-gap length 0:00:01.97

Peak level 88.2 % Track quality 100.0 % Test CRC F51A378F Copy CRC F51A378F Track not present in AccurateRip database Copy OK

Track 7

Filename J:\New Rips\Shirley Scott - Great Scott (1996) [FLAC] {Muse MCD 5434 rec 1991}\07 - Don't Misunderstand Me.wav

Pre-gap length 0:00:01.70

Peak level 88.2 % Track quality 99.9 % Test CRC 25442582 Copy CRC 25442582 Track not present in AccurateRip database Copy OK

Track 8

Filename J:\New Rips\Shirley Scott - Great Scott (1996) [FLAC] {Muse MCD 5434 rec 1991}\08 - Your Is My Heart Alone.wav

Pre-gap length 0:00:01.53

Peak level 88.2 % Track quality 100.0 % Test CRC D842FB50 Copy CRC D842FB50 Track not present in AccurateRip database Copy OK

None of the tracks are present in the AccurateRip database

No errors occurred

End of status report
 
REM GENRE JazzREM DATE 1996REM DISCID 680C2808REM COMMENT "ExactAudioCopy v0.99pb5"PERFORMER "Shirley Scott"TITLE "Great Scott"FILE "01 - Skylark.flac" WAVE TRACK 01 AUDIO TITLE "Skylark" PERFORMER "Shirley Scott" INDEX 01 00:00:00 TRACK 02 AUDIO TITLE "Triste" PERFORMER "Shirley Scott" INDEX 00 06:56:35FILE "02 - Triste.flac" WAVE INDEX 01 00:00:00 TRACK 03 AUDIO TITLE "More Than You Know" PERFORMER "Shirley Scott" INDEX 00 06:22:30FILE "03 - More Than You Know.flac" WAVE INDEX 01 00:00:00 TRACK 04 AUDIO TITLE "Blues For Groove" PERFORMER "Shirley Scott" INDEX 00 05:32:17FILE "04 - Blues For Groove.flac" WAVE INDEX 01 00:00:00 TRACK 05 AUDIO TITLE "Have You Met Miss Jones" PERFORMER "Shirley Scott" INDEX 00 05:46:17FILE "05 - Have You Met Miss Jones.flac" WAVE INDEX 01 00:00:00 TRACK 06 AUDIO TITLE "I Could Have Told You" PERFORMER "Shirley Scott" INDEX 00 07:40:02FILE "06 - I Could Have Told You.flac" WAVE INDEX 01 00:00:00 TRACK 07 AUDIO TITLE "Don't Misunderstand Me" PERFORMER "Shirley Scott" INDEX 00 06:31:22FILE "07 - Don't Misunderstand Me.flac" WAVE INDEX 01 00:00:00 TRACK 08 AUDIO TITLE "Your Is My Heart Alone" PERFORMER "Shirley Scott" INDEX 00 05:49:35FILE "08 - Your Is My Heart Alone.flac" WAVE INDEX 01 00:00:00


Трекер:  [ 12-Фев-2012 16:55 ]

  

Скачать .torrent

Размер .torrent файла 14 KB


Размер: 310 MB
Хэш (hash) релиза: 86d72fbfd59f2881eb9ffb405b27700f27b957a6

Еще никто не оставлял запись к записи скачать торрент Shirley Scott - Great Scott! . Будь первым!

!Обратная связь