Скачать через торрент музыку Sarah Vaughan - After Hours At The London House бесплатно без регистрации torrent

Если у вас наблюдаются проблемы со скриншотами, переходом по ссылками, скачиванием торрентов - проблемы в блокировщике рекламы AdBlock. #хорошегоДня!


Статистика раздачи
Размер:  230 MB   |    Зарегистрирован:  5 лет 8 месяцев   |    .torrent скачан:  28 раз   |   
Раздают:  1  
   
Загрузка...
 
Автор Сообщение

Umakiro

avatar Umakiro


Sarah Vaughan – After Hours At The London House (1958)

Жанр: Vocal Jazz
Страна-производитель диска: Украина (лицензия)
Год издания диска: 2005
Barcode: 602498819043
Аудиокодек: FLAC (*.flac)
Тип рипа: image+.cue
Битрейт аудио: lossless
Продолжительность: 38:07
Rip by strizh64
Наличие сканов в содержимом раздачи: да

Треклист:
01. Like Someone In Love (3:38)
02. Detour Ahead (5:28)
03. Three Little Words (3:40)
04. I'll String Along With You (5:16)
05. You'd Be So Nice To Come Home To (4:00)
06. Speak Low (4:52)
07. All Of You (4:15)
08. Thanks For The Memory (6:58)

Personnel:
Sarah Vaughan - vo
Ronnell Bright - p
Richard Davis - b
Roy Haynes - d
Thad Jones, Wendell Culley - tp
Henry Coker - tb
Frank Wess - ts

Rec.: London House, Chicago, Illinois, March 7, 1958.
 
 
Exact Audio Copy V0.99 prebeta 4 from 23. January 2008

Отчёт EAC об извлечении, выполненном 14. мая 2009, 13:07

Sarah Vaughan / After Hours at the London House

Дисковод: Optiarc DVD RW AD-7200A Adapter: 3 ID: 1

Режим чтения : ДостоверностьИспользование точного потока : ДаОтключение кэша аудио : ДаИспользование указателей C2 : Нет

Коррекция смещения при чтении : 48Способность читать области Lead-in и Lead-out : НетЗаполнение пропущенных сэмплов тишиной : ДаУдаление блоков с тишиной в начале и конце : НетПри вычислениях CRC использовались нулевые сэмплы : ДаИнтерфейс : Установленный внешний ASPI-интерфейс

Выходной формат : Внутренние WAV-операцииФормат сэмплов : 44.100 Гц; 16 бит; стерео

TOC извлечённого CD

Трек | Старт | Длительность | Начальный сектор | Конечный сектор --------------------------------------------------------------------- 1 | 0:00.00 | 3:37.57 | 0 | 16331 2 | 3:37.57 | 5:28.21 | 16332 | 40952 3 | 9:06.03 | 3:40.15 | 40953 | 57467 4 | 12:46.18 | 5:15.51 | 57468 | 81143 5 | 18:01.69 | 4:00.02 | 81144 | 99145 6 | 22:01.71 | 4:51.52 | 99146 | 121022 7 | 26:53.48 | 4:15.09 | 121023 | 140156 8 | 31:08.57 | 6:58.36 | 140157 | 171542

Характеристики диапазона извлечения и сообщения об ошибках

Выбранный диапазон

Имя файла E:\Up-Down\Sarah Vaughan - After Hours at the London House\Sarah Vaughan - After Hours at the London House.wav

Пиковый уровень 89.6 % Качество диапазона 100.0 % CRC копии DDF38AAF Копирование... OK

Ошибок не произошло

Конец отчёта
 
REM GENRE JazzREM DATE 1959REM DISCID 6608EF08REM COMMENT "ExactAudioCopy v0.99pb4"PERFORMER "Sarah Vaughan"TITLE "After Hours At The London House"FILE "Sarah Vaughan - After Hours At The London House.flac" WAVE TRACK 01 AUDIO TITLE "Like Someone In Love" PERFORMER "Sarah Vaughan" INDEX 01 00:00:00 TRACK 02 AUDIO TITLE "Detour Ahead" PERFORMER "Sarah Vaughan" INDEX 01 03:37:57 TRACK 03 AUDIO TITLE "Three Little Words" PERFORMER "Sarah Vaughan" INDEX 01 09:06:03 TRACK 04 AUDIO TITLE "I'll String Along With You" PERFORMER "Sarah Vaughan" INDEX 01 12:46:18 TRACK 05 AUDIO TITLE "You'd Be So Nice To Come Home To" PERFORMER "Sarah Vaughan" INDEX 01 18:01:69 TRACK 06 AUDIO TITLE "Speak Low" PERFORMER "Sarah Vaughan" INDEX 01 22:01:71 TRACK 07 AUDIO TITLE "All Of You" PERFORMER "Sarah Vaughan" INDEX 01 26:53:48 TRACK 08 AUDIO TITLE "Thanks For The Memory" PERFORMER "Sarah Vaughan" INDEX 01 31:08:57
 
[CUETools log; Date: 08.02.2012 19:57:45; Version: 2.0.9][CTDB TOCID: nCFnbwFwbAO5yeur.BpIzEWJaWg-] disk not present in database.[AccurateRip ID: 000b1ad6-004abdf8-6608ef08] found.Track [ CRC ] Status 01 [8bb52cc3] (00/10) No match 02 [e4a521eb] (00/10) No match 03 [b09192d1] (00/10) No match 04 [ea12cf3e] (00/10) No match 05 [099ac7dc] (00/10) No match 06 [7182daf3] (00/10) No match 07 [c20ebfc9] (00/10) No match 08 [b243d5df] (00/10) No matchOffsetted by 664: 01 [3479f308] (10/10) Accurately ripped 02 [a8a12703] (10/10) Accurately ripped 03 [8d193d33] (10/10) Accurately ripped 04 [5fcb0bbb] (10/10) Accurately ripped 05 [780e8e0f] (10/10) Accurately ripped 06 [220f480d] (10/10) Accurately ripped 07 [70a98b7f] (10/10) Accurately ripped 08 [c4090e66] (10/10) Accurately ripped

Track Peak [ CRC32 ] [W/O NULL] [ LOG ] -- 89,6 [DDF38AAF] [B0A281DE] CRC32 01 89,3 [CB2F1BE2] [A508DB9C] 02 84,8 [EFCBD102] [A40D54EA] 03 86,1 [865FFD10] [C473FA4A] 04 79,4 [86762E11] [0288178B] 05 85,2 [B96119CD] [D669527A] 06 82,1 [FE6408B9] [BA55EDAB] 07 89,6 [4111FBBB] [6EA2CC73] 08 83,9 [0FD50D92] [FA7B7D03]


Трекер:  [ 12-Фев-2012 16:54 ]

  

Скачать .torrent

Размер .torrent файла 19 KB


Размер: 230 MB
Хэш (hash) релиза: a670cf58c31815136c99834e30090616b550dc37

Еще никто не оставлял запись к записи скачать торрент Sarah Vaughan - After Hours At The London House . Будь первым!

!Обратная связь