Скачать через торрент музыку Sarah Vaughan - Trouble Is A Man - 1992, FLAC бесплатно без регистрации torrent

Если у вас наблюдаются проблемы со скриншотами, переходом по ссылками, скачиванием торрентов - проблемы в блокировщике рекламы AdBlock. #хорошегоДня!


Статистика раздачи
Размер:  143 MB   |    Зарегистрирован:  5 лет 8 месяцев   |    .torrent скачан:  29 раз   |   
Раздают:  1  
   
Загрузка...
 
Автор Сообщение

Umakiro

avatar Umakiro


Sarah Vaughan – Trouble Is A Man

Жанр: Vocal Jazz
Год издания диска: 1992
Аудиокодек: FLAC (*.flac)
Тип рипа: tracks+.cue
Битрейт аудио: lossless
Продолжительность: 41:35
Rip by Steagy
Наличие сканов в содержимом раздачи: нет

Треклист:
01. Lover Man (3:16)
02. Love Me Or Leave Me (2:50)
03. Don't Worry 'Bout Me (2:49)
04. September Song (2:55)
05. I'm Through With Love (2:44)
06. The One I Love Belongs To Somebody Else (3:05)
07. I Feel So Smoochie (2:34)
08. Trouble Is A Man (2:30)
09. Gentleman Friend (2:28)
10. A Hundred Years From Today (2:51)
11. East Of The Sun And West Of The Moon (2:51)
12. Signing Off (2:39)
13. No Smoke Blues (2:21)
14. What More Can A Woman Do (3:04)
15. Mean To Me (2:38)
 
 
Exact Audio Copy V0.99 prebeta 5 from 4. May 2009

Отчёт EAC об извлечении, выполненном 10. января 2010, 11:40

Sarah Vaughan / Trouble Is A Man

Дисковод: _NEC DVD_RW ND-3570A Adapter: 0 ID: 0

Режим чтения : ДостоверностьИспользование точного потока : ДаОтключение кэша аудио : ДаИспользование указателей C2 : Нет

Коррекция смещения при чтении : 48Способность читать области Lead-in и Lead-out : НетЗаполнение пропущенных сэмплов тишиной : ДаУдаление блоков с тишиной в начале и конце : НетПри вычислениях CRC использовались нулевые сэмплы : ДаИнтерфейс : Установленный внешний ASPI-интерфейсОбработка зазоров : Добавлено к предыдущему треку

Выходной формат : Пользовательский кодировщикВыбранный битрейт : 768 kBit/sКачество : ВысокийДобавление ID3-тэга : НетУтилита сжатия : C:\Program Files\Exact Audio Copy\FLAC\FLAC.EXEДополнительные параметры : -8 -V -T "ARTIST=%a" -T "TITLE=%t" -T "ALBUM=%g" -T "DATE=%y" -T "TRACKNUMBER=%n" -T "GENRE=%m" -T "COMMENT=EAC FLAC -8" %s

TOC извлечённого CD

Трек | Старт | Длительность | Начальный сектор | Конечный сектор --------------------------------------------------------------------- 1 | 0:00.33 | 3:16.02 | 33 | 14734 2 | 3:16.35 | 2:49.68 | 14735 | 27477 3 | 6:06.28 | 2:49.15 | 27478 | 40167 4 | 8:55.43 | 2:55.17 | 40168 | 53309 5 | 11:50.60 | 2:43.60 | 53310 | 65594 6 | 14:34.45 | 3:04.68 | 65595 | 79462 7 | 17:39.38 | 2:33.57 | 79463 | 90994 8 | 20:13.20 | 2:29.73 | 90995 | 102242 9 | 22:43.18 | 2:28.27 | 102243 | 113369 10 | 25:11.45 | 2:50.73 | 113370 | 126192 11 | 28:02.43 | 2:51.25 | 126193 | 139042 12 | 30:53.68 | 2:39.17 | 139043 | 150984 13 | 33:33.10 | 2:20.68 | 150985 | 161552 14 | 35:54.03 | 3:04.15 | 161553 | 175367 15 | 38:58.18 | 2:37.40 | 175368 | 187182

Трек 1

Имя файла C:\Documents and Settings\Мои документы\01. Sarah Vaughan – Lover Man.wav

Длина предзазора 0:00:02.33

Пиковый уровень 66.0 % Качество трека 100.0 % CRC копии 39883701 Точное извлечение (достоверность 1) [5068584E] Копирование... OK

Трек 2

Имя файла C:\Documents and Settings\Мои документы\02. Sarah Vaughan – Love Me Or Leave Me.wav

Длина предзазора 0:00:02.17

Пиковый уровень 48.5 % Качество трека 100.0 % CRC копии B6EA70A2 Точное извлечение (достоверность 1) [54A8D62E] Копирование... OK

Трек 3

Имя файла C:\Documents and Settings\Мои документы\03. Sarah Vaughan – Don't Worry 'Bout Me.wav

Длина предзазора 0:00:01.33

Пиковый уровень 43.8 % Качество трека 100.0 % CRC копии B0DC9E8B Точное извлечение (достоверность 1) [08DF92DD] Копирование... OK

Трек 4

Имя файла C:\Documents and Settings\Мои документы\04. Sarah Vaughan – September Song.wav

Длина предзазора 0:00:01.38

Пиковый уровень 69.0 % Качество трека 100.0 % CRC копии 73E2BFE6 Точное извлечение (достоверность 1) [AA02EDD4] Копирование... OK

Трек 5

Имя файла C:\Documents and Settings\Мои документы\05. Sarah Vaughan – I'm Through With Love.wav

Длина предзазора 0:00:01.40

Пиковый уровень 79.6 % Качество трека 100.0 % CRC копии 2BBC4BA3 Точное извлечение (достоверность 1) [31211B73] Копирование... OK

Трек 6

Имя файла C:\Documents and Settings\Мои документы\06. Sarah Vaughan – The One I Love Belongs To Somebody Else.wav

Длина предзазора 0:00:01.22

Пиковый уровень 90.0 % Качество трека 100.0 % CRC копии 790DB738 Точное извлечение (достоверность 1) [61C928CD] Копирование... OK

Трек 7

Имя файла C:\Documents and Settings\Мои документы\07. Sarah Vaughan – I Feel So Smoochie.wav

Длина предзазора 0:00:02.33

Пиковый уровень 52.1 % Качество трека 100.0 % CRC копии C34F73DB Точное извлечение (достоверность 1) [046A0885] Копирование... OK

Трек 8

Имя файла C:\Documents and Settings\Мои документы\08. Sarah Vaughan – Trouble Is A Man.wav

Длина предзазора 0:00:01.70

Пиковый уровень 86.1 % Качество трека 100.0 % CRC копии 1301A911 Точное извлечение (достоверность 1) [4517A861] Копирование... OK

Трек 9

Имя файла C:\Documents and Settings\Мои документы\09. Sarah Vaughan – Gentleman Friend.wav

Длина предзазора 0:00:01.40

Пиковый уровень 69.3 % Качество трека 100.0 % CRC копии D168E1CD Точное извлечение (достоверность 1) [61F630B9] Копирование... OK

Трек 10

Имя файла C:\Documents and Settings\Мои документы\10. Sarah Vaughan – A Hundred Years From Today.wav

Длина предзазора 0:00:02.27

Пиковый уровень 67.8 % Качество трека 100.0 % CRC копии B074CF2C Точное извлечение (достоверность 1) [B21A4BB9] Копирование... OK

Трек 11

Имя файла C:\Documents and Settings\Мои документы\11. Sarah Vaughan – East Of The Sun And West Of The Moon.wav

Длина предзазора 0:00:01.65

Пиковый уровень 70.9 % Качество трека 100.0 % CRC копии 0C9D2CAE Точное извлечение (достоверность 1) [FAC5FAEC] Копирование... OK

Трек 12

Имя файла C:\Documents and Settings\Мои документы\12. Sarah Vaughan – Signing Off.wav

Длина предзазора 0:00:02.33

Пиковый уровень 74.7 % Качество трека 100.0 % CRC копии 6EC43DE8 Точное извлечение (достоверность 1) [58F86825] Копирование... OK

Трек 13

Имя файла C:\Documents and Settings\Мои документы\13. Sarah Vaughan – No Smoke Blues.wav

Длина предзазора 0:00:01.32

Пиковый уровень 89.0 % Качество трека 100.0 % CRC копии 4E4B647A Точное извлечение (достоверность 1) [E39217E9] Копирование... OK

Трек 14

Имя файла C:\Documents and Settings\Мои документы\14. Sarah Vaughan – What More Can A Woman Do.wav

Длина предзазора 0:00:01.48

Пиковый уровень 92.9 % Качество трека 100.0 % CRC копии 0A4176B9 Точное извлечение (достоверность 1) [50BCCBFA] Копирование... OK

Трек 15

Имя файла C:\Documents and Settings\Мои документы\15. Sarah Vaughan – Mean To Me.wav

Длина предзазора 0:00:01.63

Пиковый уровень 62.1 % Качество трека 100.0 % CRC копии 78893AE7 Точное извлечение (достоверность 1) [6D932091] Копирование... OK

Все треки извлечены точно

Ошибок не произошло

Конец отчёта
 
REM GENRE JazzREM DATE 1992REM DISCID C209BF0FREM COMMENT "ExactAudioCopy v0.99pb5"PERFORMER "Sarah Vaughan"TITLE "Trouble Is A Man"FILE "01. Lover Man.flac" WAVE TRACK 01 AUDIO TITLE "Lover Man" PERFORMER "Sarah Vaughan" PREGAP 00:00:33 INDEX 01 00:00:00 TRACK 02 AUDIO TITLE "Love Me Or Leave Me" PERFORMER "Sarah Vaughan" INDEX 00 03:13:60FILE "02. Love Me Or Leave Me.flac" WAVE INDEX 01 00:00:00 TRACK 03 AUDIO TITLE "Don't Worry 'Bout Me" PERFORMER "Sarah Vaughan" INDEX 00 02:48:35FILE "03. Don't Worry 'Bout Me.flac" WAVE INDEX 01 00:00:00 TRACK 04 AUDIO TITLE "September Song" PERFORMER "Sarah Vaughan" INDEX 00 02:47:52FILE "04. September Song.flac" WAVE INDEX 01 00:00:00 TRACK 05 AUDIO TITLE "I'm Through With Love" PERFORMER "Sarah Vaughan" INDEX 00 02:53:52FILE "05. I'm Through With Love.flac" WAVE INDEX 01 00:00:00 TRACK 06 AUDIO TITLE "The One I Love Belongs To Somebody Else" PERFORMER "Sarah Vaughan" INDEX 00 02:42:38FILE "06. The One I Love Belongs To Somebody Else.flac" WAVE INDEX 01 00:00:00 TRACK 07 AUDIO TITLE "I Feel So Smoochie" PERFORMER "Sarah Vaughan" INDEX 00 03:02:35FILE "07. I Feel So Smoochie.flac" WAVE INDEX 01 00:00:00 TRACK 08 AUDIO TITLE "Trouble Is A Man" PERFORMER "Sarah Vaughan" INDEX 00 02:31:62FILE "08. Trouble Is A Man.flac" WAVE INDEX 01 00:00:00 TRACK 09 AUDIO TITLE "Gentleman Friend" PERFORMER "Sarah Vaughan" INDEX 00 02:28:33FILE "09. Gentleman Friend.flac" WAVE INDEX 01 00:00:00 TRACK 10 AUDIO TITLE "A Hundred Years From Today" PERFORMER "Sarah Vaughan" INDEX 00 02:26:00FILE "10. A Hundred Years From Today.flac" WAVE INDEX 01 00:00:00 TRACK 11 AUDIO TITLE "East Of The Sun And West Of The Moon" PERFORMER "Sarah Vaughan" INDEX 00 02:49:08FILE "11. East Of The Sun And West Of The Moon.flac" WAVE INDEX 01 00:00:00 TRACK 12 AUDIO TITLE "Signing Off" PERFORMER "Sarah Vaughan" INDEX 00 02:48:67FILE "12. Signing Off.flac" WAVE INDEX 01 00:00:00 TRACK 13 AUDIO TITLE "No Smoke Blues" PERFORMER "Sarah Vaughan" INDEX 00 02:37:60FILE "13. No Smoke Blues.flac" WAVE INDEX 01 00:00:00 TRACK 14 AUDIO TITLE "What More Can A Woman Do" PERFORMER "Sarah Vaughan" INDEX 00 02:19:20FILE "14. What More Can A Woman Do.flac" WAVE INDEX 01 00:00:00 TRACK 15 AUDIO TITLE "Mean To Me" PERFORMER "Sarah Vaughan" INDEX 00 03:02:27FILE "15. Mean To Me.flac" WAVE INDEX 01 00:00:00


Трекер:  [ 12-Фев-2012 16:54 ]

  

Скачать .torrent

Размер .torrent файла 12 KB


Размер: 143 MB
Хэш (hash) релиза: 118cece56a14715980b5bab9933c7780be7c0e1c

Еще никто не оставлял запись к записи скачать торрент Sarah Vaughan - Trouble Is A Man - 1992, FLAC . Будь первым!

!Обратная связь