Скачать через торрент музыку Oscar Peterson - The Essential Oscar Peterson: The Swinger - 1992, FLAC бесплатно без регистрации torrent

Если у вас наблюдаются проблемы со скриншотами, переходом по ссылками, скачиванием торрентов - проблемы в блокировщике рекламы AdBlock. #хорошегоДня!


Статистика раздачи
Размер:  301 MB   |    Зарегистрирован:  5 лет 8 месяцев   |    .torrent скачан:  33 раза   |   
Раздают:  1  
   
Загрузка...
 
Автор Сообщение

Umakiro

avatar Umakiro


Oscar Peterson – The Essential Oscar Peterson: The Swinger

Жанр: Bop
Год издания диска: 1992
Издатель (лейбл): Verve
Номер по каталогу: 517 174-2
Аудиокодек: FLAC (*.flac)
Тип рипа: tracks+.cue
Битрейт аудио: lossless
Продолжительность: 64:18
Rip by MidnightRocker
Наличие сканов в содержимом раздачи: да

Треклист:
01. Something's Coming (3:55)
02. Blues For Big Scotia (5:58)
03. People (3:34)
04. Tour's End (4:57)
05. Con Alma (7:01)
06. Tangerine (4:33)
07. March Past (3:25)
08. Tenderly (5:40)
09. On Green Dolphin Street (7:32)
10. Gravy Waltz (4:28)
11. Seven Come Eleven (3:48)
12. Waltz For Debby (5:55)
13. Brotherhood Of Man (3:31)

Rec.: 1950-1964.
 
 
Exact Audio Copy V0.99 prebeta 5 from 4. May 2009

EAC extraction logfile from 31. August 2010, 19:52

Oscar Peterson / The Essential Oscar Peterson: The Swinger

Used drive : ATAPI iHAS324 Y Adapter: 1 ID: 0

Read mode : SecureUtilize accurate stream : YesDefeat audio cache : YesMake use of C2 pointers : No

Read offset correction : 48Overread into Lead-In and Lead-Out : NoFill up missing offset samples with silence : YesDelete leading and trailing silent blocks : NoNull samples used in CRC calculations : YesUsed interface : Native Win32 interface for Win NT & 2000Gap handling : Appended to previous track

Used output format : User Defined EncoderSelected bitrate : 1024 kBit/sQuality : HighAdd ID3 tag : NoCommand line compressor : C:\Program Files\FLAC\flac.exeAdditional command line options : -V -8 -T "artist=%a" -T "title=%t" -T "album=%g" -T "date=%y" -T "tracknumber=%n" -T "genre=%m" -T "comment=EAC FLAC -8" %s

TOC of the extracted CD

Track | Start | Length | Start sector | End sector --------------------------------------------------------- 1 | 0:00.32 | 3:55.13 | 32 | 17669 2 | 3:55.45 | 5:58.30 | 17670 | 44549 3 | 9:54.00 | 3:34.25 | 44550 | 60624 4 | 13:28.25 | 4:56.67 | 60625 | 82891 5 | 18:25.17 | 7:01.20 | 82892 | 114486 6 | 25:26.37 | 4:33.23 | 114487 | 134984 7 | 29:59.60 | 3:24.72 | 134985 | 150356 8 | 33:24.57 | 5:40.03 | 150357 | 175859 9 | 39:04.60 | 7:31.62 | 175860 | 209746 10 | 46:36.47 | 4:27.73 | 209747 | 229844 11 | 51:04.45 | 3:47.60 | 229845 | 246929 12 | 54:52.30 | 5:55.00 | 246930 | 273554 13 | 60:47.30 | 3:30.60 | 273555 | 289364

Track 1

Filename L:\Torrents\Oscar Peterson - The Essential Oscar Peterson...The Swinger (1992) [FLAC]\01 - Something's Coming.wav

Pre-gap length 0:00:02.32

Peak level 89.9 % Track quality 100.0 % Test CRC 977EE341 Copy CRC 977EE341 Accurately ripped (confidence 9) [BC997C13] Copy OK

Track 2

Filename L:\Torrents\Oscar Peterson - The Essential Oscar Peterson...The Swinger (1992) [FLAC]\02 - Blues for Big Scotia.wav

Pre-gap length 0:00:02.58

Peak level 63.6 % Track quality 100.0 % Test CRC 2D4703BC Copy CRC 2D4703BC Accurately ripped (confidence 10) [BB5D32CC] Copy OK

Track 3

Filename L:\Torrents\Oscar Peterson - The Essential Oscar Peterson...The Swinger (1992) [FLAC]\03 - People.wav

Pre-gap length 0:00:02.53

Peak level 70.8 % Track quality 100.0 % Test CRC AA6B3E28 Copy CRC AA6B3E28 Accurately ripped (confidence 11) [9ECA6053] Copy OK

Track 4

Filename L:\Torrents\Oscar Peterson - The Essential Oscar Peterson...The Swinger (1992) [FLAC]\04 - Tour's End.wav

Pre-gap length 0:00:02.65

Peak level 48.1 % Track quality 100.0 % Test CRC 234FE954 Copy CRC 234FE954 Accurately ripped (confidence 10) [6A4BFD1D] Copy OK

Track 5

Filename L:\Torrents\Oscar Peterson - The Essential Oscar Peterson...The Swinger (1992) [FLAC]\05 - Con Alma.wav

Pre-gap length 0:00:02.40

Peak level 76.6 % Track quality 100.0 % Test CRC 6612AE46 Copy CRC 6612AE46 Accurately ripped (confidence 11) [98D0A3A9] Copy OK

Track 6

Filename L:\Torrents\Oscar Peterson - The Essential Oscar Peterson...The Swinger (1992) [FLAC]\06 - Tangerine.wav

Pre-gap length 0:00:02.65

Peak level 73.4 % Track quality 100.0 % Test CRC DB6F4275 Copy CRC DB6F4275 Accurately ripped (confidence 11) [131B92F2] Copy OK

Track 7

Filename L:\Torrents\Oscar Peterson - The Essential Oscar Peterson...The Swinger (1992) [FLAC]\07 - March Past.wav

Pre-gap length 0:00:02.58

Peak level 65.3 % Track quality 100.0 % Test CRC 7A342240 Copy CRC 7A342240 Accurately ripped (confidence 11) [D93122C8] Copy OK

Track 8

Filename L:\Torrents\Oscar Peterson - The Essential Oscar Peterson...The Swinger (1992) [FLAC]\08 - Tenderly.wav

Pre-gap length 0:00:02.65

Peak level 70.9 % Track quality 99.9 % Test CRC 9ABCE140 Copy CRC 9ABCE140 Accurately ripped (confidence 10) [6B99560C] Copy OK

Track 9

Filename L:\Torrents\Oscar Peterson - The Essential Oscar Peterson...The Swinger (1992) [FLAC]\09 - On Green Dolphin Street.wav

Pre-gap length 0:00:02.55

Peak level 81.1 % Track quality 100.0 % Test CRC 765E5DF1 Copy CRC 765E5DF1 Accurately ripped (confidence 10) [48DF7504] Copy OK

Track 10

Filename L:\Torrents\Oscar Peterson - The Essential Oscar Peterson...The Swinger (1992) [FLAC]\10 - Gravy Waltz.wav

Pre-gap length 0:00:02.57

Peak level 60.8 % Track quality 99.9 % Test CRC C4CC2766 Copy CRC C4CC2766 Accurately ripped (confidence 11) [92EE693F] Copy OK

Track 11

Filename L:\Torrents\Oscar Peterson - The Essential Oscar Peterson...The Swinger (1992) [FLAC]\11 - Seven Come Eleven.wav

Pre-gap length 0:00:02.03

Peak level 64.6 % Track quality 99.9 % Test CRC 1D95386C Copy CRC 1D95386C Accurately ripped (confidence 11) [815976AC] Copy OK

Track 12

Filename L:\Torrents\Oscar Peterson - The Essential Oscar Peterson...The Swinger (1992) [FLAC]\12 - Waltz for Debby.wav

Pre-gap length 0:00:01.45

Peak level 62.4 % Track quality 99.9 % Test CRC 082CA8B2 Copy CRC 082CA8B2 Accurately ripped (confidence 11) [2FDBAE1A] Copy OK

Track 13

Filename L:\Torrents\Oscar Peterson - The Essential Oscar Peterson...The Swinger (1992) [FLAC]\13 - Brotherhood of Man.wav

Pre-gap length 0:00:02.63

Peak level 70.1 % Track quality 100.0 % Test CRC A97328E2 Copy CRC A97328E2 Accurately ripped (confidence 10) [0B818EE5] Copy OK

All tracks accurately ripped

No errors occurred

End of status report
 
REM GENRE JazzREM DATE 1992REM DISCID B60F120DREM COMMENT "ExactAudioCopy v0.99pb5"PERFORMER "Oscar Peterson"TITLE "The Essential Oscar Peterson: The Swinger"FILE "01. Something's Coming.flac" WAVE TRACK 01 AUDIO TITLE "Something's Coming" PERFORMER "Oscar Peterson" PREGAP 00:00:32 INDEX 01 00:00:00 TRACK 02 AUDIO TITLE "Blues For Big Scotia" PERFORMER "Oscar Peterson" INDEX 00 03:52:30FILE "02. Blues For Big Scotia.flac" WAVE INDEX 01 00:00:00 TRACK 03 AUDIO TITLE "People" PERFORMER "Oscar Peterson" INDEX 00 05:55:52FILE "03. People.flac" WAVE INDEX 01 00:00:00 TRACK 04 AUDIO TITLE "Tour's End" PERFORMER "Oscar Peterson" INDEX 00 03:31:35FILE "04. Tour's End.flac" WAVE INDEX 01 00:00:00 TRACK 05 AUDIO TITLE "Con Alma" PERFORMER "Oscar Peterson" INDEX 00 04:54:27FILE "05. Con Alma.flac" WAVE INDEX 01 00:00:00 TRACK 06 AUDIO TITLE "Tangerine" PERFORMER "Oscar Peterson" INDEX 00 06:58:30FILE "06. Tangerine.flac" WAVE INDEX 01 00:00:00 TRACK 07 AUDIO TITLE "March Past" PERFORMER "Oscar Peterson" INDEX 00 04:30:40FILE "07. March Past.flac" WAVE INDEX 01 00:00:00 TRACK 08 AUDIO TITLE "Tenderly" PERFORMER "Oscar Peterson" INDEX 00 03:22:07FILE "08. Tenderly.flac" WAVE INDEX 01 00:00:00 TRACK 09 AUDIO TITLE "On Green Dolphin Street" PERFORMER "Oscar Peterson" INDEX 00 05:37:23FILE "09. On Green Dolphin Street.flac" WAVE INDEX 01 00:00:00 TRACK 10 AUDIO TITLE "Gravy Waltz" PERFORMER "Oscar Peterson" INDEX 00 07:29:05FILE "10. Gravy Waltz.flac" WAVE INDEX 01 00:00:00 TRACK 11 AUDIO TITLE "Seven Come Eleven" PERFORMER "Oscar Peterson" INDEX 00 04:25:70FILE "11. Seven Come Eleven.flac" WAVE INDEX 01 00:00:00 TRACK 12 AUDIO TITLE "Waltz For Debby" PERFORMER "Oscar Peterson" INDEX 00 03:46:15FILE "12. Waltz For Debby.flac" WAVE INDEX 01 00:00:00 TRACK 13 AUDIO TITLE "Brotherhood Of Man" PERFORMER "Oscar Peterson" INDEX 00 05:52:12FILE "13. Brotherhood Of Man.flac" WAVE INDEX 01 00:00:00


Трекер:  [ 12-Фев-2012 16:53 ]

  

Скачать .torrent

Размер .torrent файла 13 KB


Размер: 301 MB
Хэш (hash) релиза: e39fce53c235a2c5d65306397ea6339b090fae57

Еще никто не оставлял запись к записи скачать торрент Oscar Peterson - The Essential Oscar Peterson: The Swinger - 1992, FLAC . Будь первым!

!Обратная связь