Скачать через торрент музыку Mary Lou Williams - Zoning бесплатно без регистрации torrent

Если у вас наблюдаются проблемы со скриншотами, переходом по ссылками, скачиванием торрентов - проблемы в блокировщике рекламы AdBlock. #хорошегоДня!


Статистика раздачи
Размер:  289 MB   |    Зарегистрирован:  5 лет 8 месяцев   |    .torrent скачан:  26 раз   |   
Раздают:  1  
   
Загрузка...
 
Автор Сообщение

Umakiro

avatar Umakiro


Mary Lou Williams – Zoning (1974)

Жанр: Post-Bop
Год издания диска: 1995
Издатель (лейбл): Smithsonian Folkways
Номер по каталогу: SF CD 40811
Аудиокодек: FLAC (*.flac)
Тип рипа: tracks+.cue
Битрейт аудио: lossless
Продолжительность: 61:31
Источник: вата
Наличие сканов в содержимом раздачи: сетевые front, back

Треклист:
01. Syl-O-Gism (3:30)
02. Olinga (4:06)
03. Medi II (2:10)
04. Gloria (4:42)
05. Intermission (2:25)
06. Zoning Fungus II (6:54)
07. Holy Ghost (5:27)
08. Medi I (4:59)
09. Rosa Mae (4:40)
10. Ghost Of Love (4:59)
11. Praise The Lord (6:40)
12. Gloria (6:38)
13. Play It Momma (4:22)

Personnel:
Mary Lou Williams - p
Zita Carno - p
Bob Cranshaw - b
Mickey Roker - d

Rec.: A&R Studios, NYC, NY, January - March 1974.
 
 
Exact Audio Copy V0.99 prebeta 3 from 28. July 2007

EAC extraction logfile from 7. May 2009, 15:10

Mary Lou Williams / Zoning

Used drive : TSSTcorpDVD+-RW TS-L632H Adapter: 1 ID: 0

Read mode : SecureUtilize accurate stream : YesDefeat audio cache : YesMake use of C2 pointers : No

Read offset correction : 6Overread into Lead-In and Lead-Out : NoFill up missing offset samples with silence : YesDelete leading and trailing silent blocks : NoNull samples used in CRC calculations : YesUsed interface : Native Win32 interface for Win NT & 2000Gap handling : Appended to previous track

Used output format : User Defined EncoderSelected bitrate : 128 kBit/sQuality : HighAdd ID3 tag : NoCommand line compressor : C:\Program Files\Exact Audio Copy\Flac\flac.exeAdditional command line options : -V -8 -T "artist=%a" -T "title=%t" -T "album=%g" -T "date=%y" -T "tracknumber=%n" -T "genre=%m" %s

TOC of the extracted CD

Track | Start | Length | Start sector | End sector --------------------------------------------------------- 1 | 0:00.00 | 3:29.45 | 0 | 15719 2 | 3:29.45 | 4:06.15 | 15720 | 34184 3 | 7:35.60 | 2:10.02 | 34185 | 43936 4 | 9:45.62 | 4:41.38 | 43937 | 65049 5 | 14:27.25 | 2:25.27 | 65050 | 75951 6 | 16:52.52 | 6:54.03 | 75952 | 107004 7 | 23:46.55 | 5:26.65 | 107005 | 131519 8 | 29:13.45 | 4:58.50 | 131520 | 153919 9 | 34:12.20 | 4:40.02 | 153920 | 174921 10 | 38:52.22 | 4:58.53 | 174922 | 197324 11 | 43:51.00 | 6:39.52 | 197325 | 227301 12 | 50:30.52 | 6:37.43 | 227302 | 257119 13 | 57:08.20 | 4:22.32 | 257120 | 276801

Track 1

Filename C:\Users\Alex\Torrents\Rips\Mary Lou Williams - - Zoning\01 - Syl-O-Gism.wav

Pre-gap length 0:00:02.00

Peak level 93.0 % Track quality 100.0 % Test CRC 732B4E0B Copy CRC 732B4E0B Accurately ripped (confidence 2) [AE724588] Copy OK

Track 2

Filename C:\Users\Alex\Torrents\Rips\Mary Lou Williams - - Zoning\02 - Olinga.wav

Pre-gap length 0:00:02.08

Peak level 99.8 % Track quality 100.0 % Test CRC B08B5930 Copy CRC B08B5930 Accurately ripped (confidence 2) [F68E9037] Copy OK

Track 3

Filename C:\Users\Alex\Torrents\Rips\Mary Lou Williams - - Zoning\03 - Medi II.wav

Pre-gap length 0:00:02.03

Peak level 99.8 % Track quality 100.0 % Test CRC D6758F96 Copy CRC D6758F96 Accurately ripped (confidence 2) [665717C2] Copy OK

Track 4

Filename C:\Users\Alex\Torrents\Rips\Mary Lou Williams - - Zoning\04 - Gloria.wav

Pre-gap length 0:00:02.07

Peak level 99.8 % Track quality 100.0 % Test CRC A2D07940 Copy CRC A2D07940 Accurately ripped (confidence 2) [CED877B8] Copy OK

Track 5

Filename C:\Users\Alex\Torrents\Rips\Mary Lou Williams - - Zoning\05 - Intermission.wav

Pre-gap length 0:00:02.13

Peak level 99.8 % Track quality 100.0 % Test CRC 6317C318 Copy CRC 6317C318 Accurately ripped (confidence 2) [2549B028] Copy OK

Track 6

Filename C:\Users\Alex\Torrents\Rips\Mary Lou Williams - - Zoning\06 - Zoning Fungus II.wav

Pre-gap length 0:00:02.05

Peak level 99.8 % Track quality 100.0 % Test CRC 1A27D8BC Copy CRC 1A27D8BC Accurately ripped (confidence 2) [10F6CAF9] Copy OK

Track 7

Filename C:\Users\Alex\Torrents\Rips\Mary Lou Williams - - Zoning\07 - Holy Ghost.wav

Pre-gap length 0:00:02.00

Peak level 99.8 % Track quality 100.0 % Test CRC 75A9B1C7 Copy CRC 75A9B1C7 Accurately ripped (confidence 2) [90FBF93E] Copy OK

Track 8

Filename C:\Users\Alex\Torrents\Rips\Mary Lou Williams - - Zoning\08 - Medi I.wav

Pre-gap length 0:00:02.08

Peak level 99.8 % Track quality 100.0 % Test CRC E3A043AA Copy CRC E3A043AA Accurately ripped (confidence 2) [C389D18A] Copy OK

Track 9

Filename C:\Users\Alex\Torrents\Rips\Mary Lou Williams - - Zoning\09 - Rosa Mae.wav

Pre-gap length 0:00:02.05

Peak level 99.8 % Track quality 100.0 % Test CRC AB918A0F Copy CRC AB918A0F Accurately ripped (confidence 2) [B67E832B] Copy OK

Track 10

Filename C:\Users\Alex\Torrents\Rips\Mary Lou Williams - - Zoning\10 - Ghost of Love.wav

Pre-gap length 0:00:02.02

Peak level 86.2 % Track quality 100.0 % Test CRC E2E3780E Copy CRC E2E3780E Accurately ripped (confidence 2) [BA20AACF] Copy OK

Track 11

Filename C:\Users\Alex\Torrents\Rips\Mary Lou Williams - - Zoning\11 - Praise the Lord.wav

Pre-gap length 0:00:02.05

Peak level 99.8 % Track quality 100.0 % Test CRC 0577B6AA Copy CRC 0577B6AA Accurately ripped (confidence 2) [9C65746E] Copy OK

Track 12

Filename C:\Users\Alex\Torrents\Rips\Mary Lou Williams - - Zoning\12 - Gloria.wav

Pre-gap length 0:00:02.02

Peak level 99.8 % Track quality 100.0 % Test CRC C1FEB850 Copy CRC C1FEB850 Accurately ripped (confidence 2) [8023AB21] Copy OK

Track 13

Filename C:\Users\Alex\Torrents\Rips\Mary Lou Williams - - Zoning\13 - Play It Momma.wav

Pre-gap length 0:00:02.03

Peak level 99.8 % Track quality 100.0 % Test CRC E63EDB71 Copy CRC E63EDB71 Accurately ripped (confidence 2) [7B17C0F9] Copy OK

All tracks accurately ripped

No errors occurred

End of status report
 
REM GENRE JazzREM DATE 1974REM DISCID 9F0E6A0DREM COMMENT "ExactAudioCopy v0.99pb3"PERFORMER "Mary Lou Williams"TITLE "Zoning"FILE "01. Syl-O-Gism.flac" WAVE TRACK 01 AUDIO TITLE "Syl-O-Gism" PERFORMER "Mary Lou Williams" INDEX 01 00:00:00 TRACK 02 AUDIO TITLE "Olinga" PERFORMER "Mary Lou Williams" INDEX 00 03:27:37FILE "02. Olinga.flac" WAVE INDEX 01 00:00:00 TRACK 03 AUDIO TITLE "Medi II" PERFORMER "Mary Lou Williams" INDEX 00 04:04:12FILE "03. Medi II.flac" WAVE INDEX 01 00:00:00 TRACK 04 AUDIO TITLE "Gloria" PERFORMER "Mary Lou Williams" INDEX 00 02:07:70FILE "04. Gloria.flac" WAVE INDEX 01 00:00:00 TRACK 05 AUDIO TITLE "Intermission" PERFORMER "Mary Lou Williams" INDEX 00 04:39:25FILE "05. Intermission.flac" WAVE INDEX 01 00:00:00 TRACK 06 AUDIO TITLE "Zoning Fungus II" PERFORMER "Mary Lou Williams" INDEX 00 02:23:22FILE "06. Zoning Fungus II.flac" WAVE INDEX 01 00:00:00 TRACK 07 AUDIO TITLE "Holy Ghost" PERFORMER "Mary Lou Williams" INDEX 00 06:52:03FILE "07. Holy Ghost.flac" WAVE INDEX 01 00:00:00 TRACK 08 AUDIO TITLE "Medi I" PERFORMER "Mary Lou Williams" INDEX 00 05:24:57FILE "08. Medi I.flac" WAVE INDEX 01 00:00:00 TRACK 09 AUDIO TITLE "Rosa Mae" PERFORMER "Mary Lou Williams" INDEX 00 04:56:45FILE "09. Rosa Mae.flac" WAVE INDEX 01 00:00:00 TRACK 10 AUDIO TITLE "Ghost Of Love" PERFORMER "Mary Lou Williams" INDEX 00 04:38:00FILE "10. Ghost Of Love.flac" WAVE INDEX 01 00:00:00 TRACK 11 AUDIO TITLE "Praise The Lord" PERFORMER "Mary Lou Williams" INDEX 00 04:56:48FILE "11. Praise The Lord.flac" WAVE INDEX 01 00:00:00 TRACK 12 AUDIO TITLE "Gloria" PERFORMER "Mary Lou Williams" INDEX 00 06:37:50FILE "12. Gloria.flac" WAVE INDEX 01 00:00:00 TRACK 13 AUDIO TITLE "Play It Momma" PERFORMER "Mary Lou Williams" INDEX 00 06:35:40FILE "13. Play It Momma.flac" WAVE INDEX 01 00:00:00


Трекер:  [ 12-Фев-2012 16:53 ]

  

Скачать .torrent

Размер .torrent файла 12 KB


Размер: 289 MB
Хэш (hash) релиза: b51f3ece1ea042bfb129a84ff89b49531b55c9c1

Еще никто не оставлял запись к записи скачать торрент Mary Lou Williams - Zoning . Будь первым!

!Обратная связь