Скачать через торрент музыку Diane Schuur - Collection - 1989, FLAC бесплатно без регистрации torrent

Если у вас наблюдаются проблемы со скриншотами, переходом по ссылками, скачиванием торрентов - проблемы в блокировщике рекламы AdBlock. #хорошегоДня!


Статистика раздачи
Размер:  263 MB   |    Зарегистрирован:  5 лет 8 месяцев   |    .torrent скачан:  30 раз   |   
Раздают:  1  
   
Загрузка...
 
Автор Сообщение

Umakiro

avatar Umakiro


Diane Schuur – Collection

Жанр: Vocal Jazz
Год издания диска: 1989
Издатель (лейбл): GRP
Номер по каталогу: GRCD-9591
Аудиокодек: FLAC (*.flac)
Тип рипа: tracks+.cue
Битрейт аудио: lossless
Продолжительность: 50:07
Источник: вата

Треклист:
01. Loves Dance (5:36)
02. Easy To Love (2:57)
03. By Design (3:55)
04. The Very Thought Of You (4:46)
05. Caught A Touch Of Your Love (3:16)
06. How Long Has This Been Going On? (4:24)
07. Louisana Sunday Afternoon (4:53)
08. Come Rain Or Shine (4:56)
09. Sure Thing (3:17)
10. Teach Me Tonight (3:54)
11. Funny (But I Still Love You) (3:54)
12. I'll Close My Eyes (4:19)

Rec.: 1986-1989.
 
 
Exact Audio Copy V0.99 prebeta 3 from 28. July 2007

EAC extraction logfile from 19. October 2010, 19:53

Diane Schuur / Collection

Used drive : TOSHIBA DVD-ROM SD-R2512 Adapter: 1 ID: 0

Read mode : SecureUtilize accurate stream : YesDefeat audio cache : YesMake use of C2 pointers : No

Read offset correction : 116Overread into Lead-In and Lead-Out : NoFill up missing offset samples with silence : YesDelete leading and trailing silent blocks : NoNull samples used in CRC calculations : YesUsed interface : Installed external ASPI interfaceGap handling : Appended to previous track

Used output format : User Defined EncoderSelected bitrate : 320 kBit/sQuality : HighAdd ID3 tag : NoCommand line compressor : C:\Program Files\Exact Audio Copy\Flac\flac.exeAdditional command line options : -V -8 -T "artist=%a" -T "title=%t" -T "album=%g" -T "date=%y" -T "tracknumber=%n" -T "genre=%m" %s

TOC of the extracted CD

Track | Start | Length | Start sector | End sector --------------------------------------------------------- 1 | 0:00.00 | 5:35.38 | 0 | 25162 2 | 5:35.38 | 2:57.37 | 25163 | 38474 3 | 8:33.00 | 3:54.38 | 38475 | 56062 4 | 12:27.38 | 4:46.20 | 56063 | 77532 5 | 17:13.58 | 3:16.17 | 77533 | 92249 6 | 20:30.00 | 4:23.38 | 92250 | 112012 7 | 24:53.38 | 4:53.37 | 112013 | 134024 8 | 29:47.00 | 4:56.25 | 134025 | 156249 9 | 34:43.25 | 3:17.13 | 156250 | 171037 10 | 38:00.38 | 3:54.37 | 171038 | 188624 11 | 41:55.00 | 3:53.38 | 188625 | 206137 12 | 45:48.38 | 4:18.62 | 206138 | 225549

Track 1

Filename E:\Working Group\01 - Loves Dance.wav

Pre-gap length 0:00:02.00

Peak level 58.2 % Track quality 100.0 % Test CRC C326DB9A Copy CRC C326DB9A Accurately ripped (confidence 5) [6F9ED6D5] Copy OK

Track 2

Filename E:\Working Group\02 - Easy To Love.wav

Pre-gap length 0:00:01.13

Peak level 83.2 % Track quality 100.0 % Test CRC C03F2FF0 Copy CRC C03F2FF0 Accurately ripped (confidence 5) [7B994A84] Copy OK

Track 3

Filename E:\Working Group\03 - By Design.wav

Pre-gap length 0:00:01.12

Peak level 84.8 % Track quality 100.0 % Test CRC B67D6481 Copy CRC B67D6481 Accurately ripped (confidence 5) [659D7567] Copy OK

Track 4

Filename E:\Working Group\04 - The Very Thought Of You.wav

Pre-gap length 0:00:01.13

Peak level 62.5 % Track quality 99.9 % Test CRC AD311ACA Copy CRC AD311ACA Accurately ripped (confidence 5) [A5641424] Copy OK

Track 5

Filename E:\Working Group\05 - Caught A Touch Of Your Love.wav

Peak level 100.0 % Track quality 99.9 % Test CRC 3F68042D Copy CRC 3F68042D Accurately ripped (confidence 5) [441E8357] Copy OK

Track 6

Filename E:\Working Group\06 - How Long Has This Been Going On .wav

Peak level 83.5 % Track quality 100.0 % Test CRC 9C150A41 Copy CRC 9C150A41 Accurately ripped (confidence 5) [041D09D6] Copy OK

Track 7

Filename E:\Working Group\07 - Louisana Sunday Afternoon.wav

Pre-gap length 0:00:01.13

Peak level 87.1 % Track quality 100.0 % Test CRC 16593DEC Copy CRC 16593DEC Accurately ripped (confidence 5) [91D63D50] Copy OK

Track 8

Filename E:\Working Group\08 - Come Rain Or Shine.wav

Peak level 76.8 % Track quality 100.0 % Test CRC A76F32E9 Copy CRC A76F32E9 Accurately ripped (confidence 5) [264C51B6] Copy OK

Track 9

Filename E:\Working Group\09 - Sure Thing.wav

Pre-gap length 0:00:02.00

Peak level 41.4 % Track quality 100.0 % Test CRC E5A46DEA Copy CRC E5A46DEA Accurately ripped (confidence 5) [C5D8089D] Copy OK

Track 10

Filename E:\Working Group\10 - Teach Me Tonight.wav

Pre-gap length 0:00:02.13

Peak level 75.2 % Track quality 100.0 % Test CRC 50DD6252 Copy CRC 50DD6252 Accurately ripped (confidence 5) [8871A90B] Copy OK

Track 11

Filename E:\Working Group\11 - Funny (But I Still Love You).wav

Peak level 93.2 % Track quality 100.0 % Test CRC 2CAFBC6E Copy CRC 2CAFBC6E Accurately ripped (confidence 5) [1D2696AB] Copy OK

Track 12

Filename E:\Working Group\12 - I'll Close My Eyes.wav

Peak level 54.9 % Track quality 100.0 % Test CRC 3198D9F8 Copy CRC 3198D9F8 Accurately ripped (confidence 5) [4DC3CFC9] Copy OK

All tracks accurately ripped

No errors occurred

End of status report
 
REM GENRE JazzREM DATE 1989REM DISCID A50BBF0CREM COMMENT "ExactAudioCopy v0.99pb3"FILE "01 - Loves Dance.wav" WAVE TRACK 01 AUDIO INDEX 01 00:00:00 TRACK 02 AUDIO INDEX 00 05:34:25FILE "02 - Easy To Love.wav" WAVE INDEX 01 00:00:00 TRACK 03 AUDIO INDEX 00 02:56:25FILE "03 - By Design.wav" WAVE INDEX 01 00:00:00 TRACK 04 AUDIO INDEX 00 03:53:25FILE "04 - The Very Thought Of You.wav" WAVE INDEX 01 00:00:00FILE "05 - Caught A Touch Of Your Love.wav" WAVE TRACK 05 AUDIO INDEX 01 00:00:00FILE "06 - How Long Has This Been Going On.wav" WAVE TRACK 06 AUDIO INDEX 01 00:00:00 TRACK 07 AUDIO INDEX 00 04:22:25FILE "07 - Louisana Sunday Afternoon.wav" WAVE INDEX 01 00:00:00FILE "08 - Come Rain Or Shine.wav" WAVE TRACK 08 AUDIO INDEX 01 00:00:00 TRACK 09 AUDIO INDEX 00 04:54:25FILE "09 - Sure Thing.wav" WAVE INDEX 01 00:00:00 TRACK 10 AUDIO INDEX 00 03:15:00FILE "10 - Teach Me Tonight.wav" WAVE INDEX 01 00:00:00FILE "11 - Funny (But I Still Love You).wav" WAVE TRACK 11 AUDIO INDEX 01 00:00:00FILE "12 - I'll Close My Eyes.wav" WAVE TRACK 12 AUDIO INDEX 01 00:00:00


Трекер:  [ 12-Фев-2012 16:53 ]

  

Скачать .torrent

Размер .torrent файла 11 KB


Размер: 263 MB
Хэш (hash) релиза: c338eba5e730c9ae96a9eafa8e8403d7fdf6cc7b

Еще никто не оставлял запись к записи скачать торрент Diane Schuur - Collection - 1989, FLAC . Будь первым!

!Обратная связь