Скачать через торрент музыку Mary Lou Williams - Zodiac Suite - 1945, FLAC бесплатно без регистрации torrent

Если у вас наблюдаются проблемы со скриншотами, переходом по ссылками, скачиванием торрентов - проблемы в блокировщике рекламы AdBlock. #хорошегоДня!


Статистика раздачи
Размер:  80 MB   |    Зарегистрирован:  5 лет 8 месяцев   |    .torrent скачан:  32 раза   |   
Раздают:  1  
   
Загрузка...
 
Автор Сообщение

Umakiro

avatar Umakiro


Mary Lou Williams – Zodiac Suite

Жанр: Bop
Год издания диска: 1945
Издатель (лейбл): ?
Аудиокодек: FLAC (*.flac)
Тип рипа: tracks+.cue
Битрейт аудио: lossless
Продолжительность: 43:11
Источник (релизер): вата
Сканов

Треклист:
01. Aries (1:51)
02. Taurus (2:36)
03. Gemini (2:12)
04. Cancer (2:35)
05. Leo (1:45)
06. Virgo (2:29)
07. Libra (2:12)
08. Scorpio (3:04)
09. Sagittarius (1:52)
10. Capricorn (2:41)
11. Aquarius (3:41)
12. Pisces (2:35)
13. Aries (2:20)
14. Cancer (2:38)
15. Virgo (2:47)
16. Scorpio (3:13)
17. Aquarius (2:41)

Rec.: 1945.
 
 
Exact Audio Copy V0.99 prebeta 3 from 28. July 2007

EAC extraction logfile from 7. May 2009, 3:44

Mary Lou Williams / Zodiac Suite

Used drive : TSSTcorpDVD+-RW TS-L632H Adapter: 1 ID: 0

Read mode : SecureUtilize accurate stream : YesDefeat audio cache : YesMake use of C2 pointers : No

Read offset correction : 6Overread into Lead-In and Lead-Out : NoFill up missing offset samples with silence : YesDelete leading and trailing silent blocks : NoNull samples used in CRC calculations : YesUsed interface : Native Win32 interface for Win NT & 2000Gap handling : Appended to previous track

Used output format : User Defined EncoderSelected bitrate : 128 kBit/sQuality : HighAdd ID3 tag : NoCommand line compressor : C:\Program Files\Exact Audio Copy\Flac\flac.exeAdditional command line options : -V -8 -T "artist=%a" -T "title=%t" -T "album=%g" -T "date=%y" -T "tracknumber=%n" -T "genre=%m" %s

TOC of the extracted CD

Track | Start | Length | Start sector | End sector --------------------------------------------------------- 1 | 0:00.00 | 1:50.73 | 0 | 8322 2 | 1:50.73 | 2:35.55 | 8323 | 20002 3 | 4:26.53 | 2:12.05 | 20003 | 29907 4 | 6:38.58 | 2:34.45 | 29908 | 41502 5 | 9:13.28 | 1:45.05 | 41503 | 49382 6 | 10:58.33 | 2:29.35 | 49383 | 60592 7 | 13:27.68 | 2:11.45 | 60593 | 70462 8 | 15:39.38 | 3:04.25 | 70463 | 84287 9 | 18:43.63 | 1:52.07 | 84288 | 92694 10 | 20:35.70 | 2:41.00 | 92695 | 104769 11 | 23:16.70 | 3:40.65 | 104770 | 121334 12 | 26:57.60 | 2:34.58 | 121335 | 132942 13 | 29:32.43 | 2:19.47 | 132943 | 143414 14 | 31:52.15 | 2:38.25 | 143415 | 155289 15 | 34:30.40 | 2:47.03 | 155290 | 167817 16 | 37:17.43 | 3:12.55 | 167818 | 182272 17 | 40:30.23 | 2:40.57 | 182273 | 194329

Track 1

Filename C:\Users\Alex\Torrents\Rips\Mary Lou Williams - - Zodiac Suite\01 - Aries.wav

Pre-gap length 0:00:02.00

Peak level 88.2 % Track quality 100.0 % Test CRC 52FD2DA8 Copy CRC 52FD2DA8 Cannot be verified as accurate (confidence 1) [EA3222EE], AccurateRip returned [C40FDAA2] Copy OK

Track 2

Filename C:\Users\Alex\Torrents\Rips\Mary Lou Williams - - Zodiac Suite\02 - Taurus.wav

Pre-gap length 0:00:02.18

Peak level 85.5 % Track quality 99.9 % Test CRC 5C2AB269 Copy CRC 5C2AB269 Cannot be verified as accurate (confidence 1) [B6E7C190], AccurateRip returned [1C586250] Copy OK

Track 3

Filename C:\Users\Alex\Torrents\Rips\Mary Lou Williams - - Zodiac Suite\03 - Gemini.wav

Pre-gap length 0:00:02.55

Peak level 84.1 % Track quality 100.0 % Test CRC D39ED838 Copy CRC D39ED838 Cannot be verified as accurate (confidence 1) [A8AA2C30], AccurateRip returned [C77F361A] Copy OK

Track 4

Filename C:\Users\Alex\Torrents\Rips\Mary Lou Williams - - Zodiac Suite\04 - Cancer.wav

Pre-gap length 0:00:03.14

Peak level 79.7 % Track quality 100.0 % Test CRC C6F05E78 Copy CRC C6F05E78 Cannot be verified as accurate (confidence 1) [7C3E86C1], AccurateRip returned [661058E7] Copy OK

Track 5

Filename C:\Users\Alex\Torrents\Rips\Mary Lou Williams - - Zodiac Suite\05 - Leo.wav

Pre-gap length 0:00:02.53

Peak level 74.4 % Track quality 100.0 % Test CRC 054F012E Copy CRC 054F012E Cannot be verified as accurate (confidence 1) [29EF6F1B], AccurateRip returned [966EE803] Copy OK

Track 6

Filename C:\Users\Alex\Torrents\Rips\Mary Lou Williams - - Zodiac Suite\06 - Virgo.wav

Pre-gap length 0:00:01.73

Peak level 76.1 % Track quality 100.0 % Test CRC 658F16BE Copy CRC 658F16BE Cannot be verified as accurate (confidence 1) [5077D579], AccurateRip returned [EF790711] Copy OK

Track 7

Filename C:\Users\Alex\Torrents\Rips\Mary Lou Williams - - Zodiac Suite\07 - Libra.wav

Pre-gap length 0:00:02.53

Peak level 91.8 % Track quality 100.0 % Test CRC DDDDAD12 Copy CRC DDDDAD12 Cannot be verified as accurate (confidence 1) [69C4E8F9], AccurateRip returned [9384B74F] Copy OK

Track 8

Filename C:\Users\Alex\Torrents\Rips\Mary Lou Williams - - Zodiac Suite\08 - Scorpio.wav

Pre-gap length 0:00:02.28

Peak level 85.0 % Track quality 100.0 % Test CRC D14F74C9 Copy CRC D14F74C9 Cannot be verified as accurate (confidence 1) [568D21C8], AccurateRip returned [CBD4BDF8] Copy OK

Track 9

Filename C:\Users\Alex\Torrents\Rips\Mary Lou Williams - - Zodiac Suite\09 - Sagittarius.wav

Pre-gap length 0:00:03.13

Peak level 92.5 % Track quality 100.0 % Test CRC 2F70732F Copy CRC 2F70732F Cannot be verified as accurate (confidence 1) [FD75099B], AccurateRip returned [E27EE763] Copy OK

Track 10

Filename C:\Users\Alex\Torrents\Rips\Mary Lou Williams - - Zodiac Suite\10 - Capricorn.wav

Pre-gap length 0:00:01.70

Peak level 78.7 % Track quality 100.0 % Test CRC AB7AD94A Copy CRC AB7AD94A Cannot be verified as accurate (confidence 1) [3F46F547], AccurateRip returned [8AD7F2A3] Copy OK

Track 11

Filename C:\Users\Alex\Torrents\Rips\Mary Lou Williams - - Zodiac Suite\11 - Aquarius.wav

Pre-gap length 0:00:02.12

Peak level 88.3 % Track quality 100.0 % Test CRC 753050D2 Copy CRC 753050D2 Cannot be verified as accurate (confidence 1) [4F5B223D], AccurateRip returned [47E6DEBB] Copy OK

Track 12

Filename C:\Users\Alex\Torrents\Rips\Mary Lou Williams - - Zodiac Suite\12 - Pisces.wav

Pre-gap length 0:00:02.10

Peak level 94.4 % Track quality 100.0 % Test CRC EF6D6F4F Copy CRC EF6D6F4F Cannot be verified as accurate (confidence 1) [1C1E5404], AccurateRip returned [8FE5E238] Copy OK

Track 13

Filename C:\Users\Alex\Torrents\Rips\Mary Lou Williams - - Zodiac Suite\13 - Aries.wav

Pre-gap length 0:00:03.18

Peak level 91.5 % Track quality 100.0 % Test CRC 0DA1FAAA Copy CRC 0DA1FAAA Cannot be verified as accurate (confidence 1) [5F07A73C], AccurateRip returned [3063D580] Copy OK

Track 14

Filename C:\Users\Alex\Torrents\Rips\Mary Lou Williams - - Zodiac Suite\14 - Cancer.wav

Pre-gap length 0:00:02.10

Peak level 85.9 % Track quality 100.0 % Test CRC ECC8A288 Copy CRC ECC8A288 Cannot be verified as accurate (confidence 1) [6AEE6FA3], AccurateRip returned [21ACDBE7] Copy OK

Track 15

Filename C:\Users\Alex\Torrents\Rips\Mary Lou Williams - - Zodiac Suite\15 - Virgo.wav

Pre-gap length 0:00:01.62

Peak level 94.4 % Track quality 99.9 % Test CRC 20F15E51 Copy CRC 20F15E51 Cannot be verified as accurate (confidence 1) [7AC08B9F], AccurateRip returned [F9191305] Copy OK

Track 16

Filename C:\Users\Alex\Torrents\Rips\Mary Lou Williams - - Zodiac Suite\16 - Scorpio.wav

Pre-gap length 0:00:02.43

Peak level 85.7 % Track quality 100.0 % Test CRC 2B54B184 Copy CRC 2B54B184 Cannot be verified as accurate (confidence 1) [44F8CE70], AccurateRip returned [54A463FC] Copy OK

Track 17

Filename C:\Users\Alex\Torrents\Rips\Mary Lou Williams - - Zodiac Suite\17 - Aquarius.wav

Pre-gap length 0:00:02.53

Peak level 87.4 % Track quality 99.9 % Test CRC 8F081D87 Copy CRC 8F081D87 Cannot be verified as accurate (confidence 1) [0DB25DFD], AccurateRip returned [049432ED] Copy OK

No tracks could be verified as accurateYou may have a different pressing from the one(s) in the database

No errors occurred

End of status report
 
REM DISCID D80A1F11REM COMMENT "ExactAudioCopy v0.99pb3"PERFORMER "Mary Lou Williams"TITLE "Zodiac Suite"FILE "01 - Aries.flac" WAVE TRACK 01 AUDIO TITLE "Aries" PERFORMER "Mary Lou Williams" INDEX 01 00:00:00 TRACK 02 AUDIO TITLE "Taurus" PERFORMER "Mary Lou Williams" INDEX 00 01:48:55FILE "02 - Taurus.flac" WAVE INDEX 01 00:00:00 TRACK 03 AUDIO TITLE "Gemini" PERFORMER "Mary Lou Williams" INDEX 00 02:33:00FILE "03 - Gemini.flac" WAVE INDEX 01 00:00:00 TRACK 04 AUDIO TITLE "Cancer" PERFORMER "Mary Lou Williams" INDEX 00 02:08:66FILE "04 - Cancer.flac" WAVE INDEX 01 00:00:00 TRACK 05 AUDIO TITLE "Leo" PERFORMER "Mary Lou Williams" INDEX 00 02:31:67FILE "05 - Leo.flac" WAVE INDEX 01 00:00:00 TRACK 06 AUDIO TITLE "Virgo" PERFORMER "Mary Lou Williams" INDEX 00 01:43:07FILE "06 - Virgo.flac" WAVE INDEX 01 00:00:00 TRACK 07 AUDIO TITLE "Libra" PERFORMER "Mary Lou Williams" INDEX 00 02:26:57FILE "07 - Libra.flac" WAVE INDEX 01 00:00:00 TRACK 08 AUDIO TITLE "Scorpio" PERFORMER "Mary Lou Williams" INDEX 00 02:09:17FILE "08 - Scorpio.flac" WAVE INDEX 01 00:00:00 TRACK 09 AUDIO TITLE "Sagittarius" PERFORMER "Mary Lou Williams" INDEX 00 03:01:12FILE "09 - Sagittarius.flac" WAVE INDEX 01 00:00:00 TRACK 10 AUDIO TITLE "Capricorn" PERFORMER "Mary Lou Williams" INDEX 00 01:50:12FILE "10 - Capricorn.flac" WAVE INDEX 01 00:00:00 TRACK 11 AUDIO TITLE "Aquarius" PERFORMER "Mary Lou Williams" INDEX 00 02:38:63FILE "11 - Aquarius.flac" WAVE INDEX 01 00:00:00 TRACK 12 AUDIO TITLE "Pisces" PERFORMER "Mary Lou Williams" INDEX 00 03:38:55FILE "12 - Pisces.flac" WAVE INDEX 01 00:00:00 TRACK 13 AUDIO TITLE "Aries" PERFORMER "Mary Lou Williams" INDEX 00 02:31:40FILE "13 - Aries.flac" WAVE INDEX 01 00:00:00 TRACK 14 AUDIO TITLE "Cancer" PERFORMER "Mary Lou Williams" INDEX 00 02:17:37FILE "14 - Cancer.flac" WAVE INDEX 01 00:00:00 TRACK 15 AUDIO TITLE "Virgo" PERFORMER "Mary Lou Williams" INDEX 00 02:36:38FILE "15 - Virgo.flac" WAVE INDEX 01 00:00:00 TRACK 16 AUDIO TITLE "Scorpio" PERFORMER "Mary Lou Williams" INDEX 00 02:44:35FILE "16 - Scorpio.flac" WAVE INDEX 01 00:00:00 TRACK 17 AUDIO TITLE "Aquarius" PERFORMER "Mary Lou Williams" INDEX 00 03:10:02FILE "17 - Aquarius.flac" WAVE INDEX 01 00:00:00
 
[CUETools log; Date: 10.02.2012 14:02:09; Version: 2.0.9][CTDB TOCID: pDXxUAdgjklSVuRS4ksHvfjvkoE-] found. [ CTDBID ] Status [eee7e668] (1/1) Accurately ripped[AccurateRip ID: 001951c5-014574b4-d80a1f11] found.Track [ CRC ] Status 01 [ea3222ee] (0/2) No match 02 [b6e7c190] (0/2) No match 03 [a8aa2c30] (0/2) No match 04 [7c3e86c1] (0/2) No match 05 [29ef6f1b] (0/2) No match 06 [5077d579] (0/2) No match 07 [69c4e8f9] (0/2) No match 08 [568d21c8] (0/2) No match 09 [fd75099b] (0/2) No match 10 [3f46f547] (0/2) No match 11 [4f5b223d] (0/2) No match 12 [1c1e5404] (0/2) No match 13 [5f07a73c] (0/2) No match 14 [6aee6fa3] (0/2) No match 15 [7ac08b9f] (0/2) No match 16 [44f8ce70] (0/2) No match 17 [0db25dfd] (0/2) No matchOffsetted by 266: 01 [e3fce72a] (2/2) Accurately ripped 02 [7eff31d0] (2/2) Accurately ripped 03 [798c7efe] (2/2) Accurately ripped 04 [4abbdea3] (2/2) Accurately ripped 05 [4c957013] (2/2) Accurately ripped 06 [c5749801] (2/2) Accurately ripped 07 [4197b8eb] (2/2) Accurately ripped 08 [183879d8] (2/2) Accurately ripped 09 [fd7ed433] (2/2) Accurately ripped 10 [29068ebb] (2/2) Accurately ripped 11 [6396b4e7] (2/2) Accurately ripped 12 [74253fc0] (2/2) Accurately ripped 13 [947b29a8] (2/2) Accurately ripped 14 [9f7bdc0f] (2/2) Accurately ripped 15 [b6196541] (2/2) Accurately ripped 16 [882713f4] (2/2) Accurately ripped 17 [01dfae4d] (2/2) Accurately ripped

Track Peak [ CRC32 ] [W/O NULL] [ LOG ] -- 94,4 [F1E87CE7] [11E9A571] 01 88,2 [52FD2DA8] [8B0A8D91] CRC32 02 85,5 [5C2AB269] [670FB56C] CRC32 03 84,1 [D39ED838] [C6D7487C] CRC32 04 79,7 [C6F05E78] [5CC56101] CRC32 05 74,4 [054F012E] [070D530B] CRC32 06 76,1 [658F16BE] [FECD6208] CRC32 07 91,8 [DDDDAD12] [E1CCCC33] CRC32 08 85,0 [D14F74C9] [539F5A57] CRC32 09 92,5 [2F70732F] [CCF21ED8] CRC32 10 78,7 [AB7AD94A] [25A525C2] CRC32 11 88,3 [753050D2] [48B28DD1] CRC32 12 94,4 [EF6D6F4F] [DF86891C] CRC32 13 91,5 [0DA1FAAA] [959A20C3] CRC32 14 85,9 [ECC8A288] [A46A9422] CRC32 15 94,4 [20F15E51] [FF27F8F8] CRC32 16 85,7 [2B54B184] [08861867] CRC32 17 87,4 [8F081D87] [04734AEA] CRC32


Трекер:  [ 12-Фев-2012 16:52 ]

  

Скачать .torrent

Размер .torrent файла 14 KB


Размер: 80 MB
Хэш (hash) релиза: 6dbc5ee14a0c08447deb151bf37ea74d76d217bc

Еще никто не оставлял запись к записи скачать торрент Mary Lou Williams - Zodiac Suite - 1945, FLAC . Будь первым!

!Обратная связь