Скачать через торрент музыку Les Brown & His Band Of Renown - Live 12 May 1957 - 1998, FLAC бесплатно без регистрации torrent

Если у вас наблюдаются проблемы со скриншотами, переходом по ссылками, скачиванием торрентов - проблемы в блокировщике рекламы AdBlock. #хорошегоДня!


Статистика раздачи
Размер:  414 MB   |    Зарегистрирован:  5 лет 8 месяцев   |    .torrent скачан:  25 раз   |   
Раздают:  1  
   
Загрузка...
 
Автор Сообщение

Umakiro

avatar Umakiro


Les Brown & His Band Of Renown – Live 12 May 1957

Жанр: Big Band
Год издания диска: 1998
Издатель (лейбл): Jazz Band
Номер по каталогу: EBCD 2136-2
Аудиокодек: FLAC (*.flac)
Тип рипа: tracks+.cue
Битрейт аудио: lossless
Продолжительность: 69:54
Источник (релизер): вата
Наличие сканов в содержимом раздачи: да

Треклист:
01. Theme / Swingin' Down The Lane (2:15)
02. Love Is A Many Splendored Thing (2:26)
03. Begin The Beguine (3:09)
04. Harlem Nocturne (2:53)
05. Love That Shade Of Blue (2:30)
06. No Not Much (2:23)
07. Cherokee (2:57)
08. At Sundown (3:04)
09. Come Rain Or Come Shine (3:00)
10. Riding High (2:49)
11. On The Alamo (2:25)
12. Ramona (2:51)
13. The Continental (2:47)
14. I've Got My Love To Keep Me Warm (3:04)
15. Countin' The Blues (4:27)
16. Dream (2:36)
17. Take The 'A' Train (3:24)
18. Pink Coats (3:48)
19. Aplle Valley (3:38)
20. Bizet Has His Day (2:28)
21. Moonlight In Vermont (2:52)
22. Cecilia (2:22)
23. Nina Never Knew (2:38)
24. Leap Frog (3:08)
 
 
Exact Audio Copy V0.99 prebeta 4 from 23. January 2008

EAC extraction logfile from 5. July 2009, 22:25

Les Brown & His Band of Renown / Live 12 May 1957

Used drive : TSSTcorpCD/DVDW TS-H552L Adapter: 5 ID: 0

Read mode : SecureUtilize accurate stream : YesDefeat audio cache : YesMake use of C2 pointers : No

Read offset correction : 6Overread into Lead-In and Lead-Out : NoFill up missing offset samples with silence : YesDelete leading and trailing silent blocks : NoNull samples used in CRC calculations : YesUsed interface : Native Win32 interface for Win NT & 2000Gap handling : Appended to previous track

Used output format : User Defined EncoderSelected bitrate : 128 kBit/sQuality : HighAdd ID3 tag : NoCommand line compressor : C:\Program Files\Exact Audio Copy\FLAC\FLAC.EXEAdditional command line options : --best -T "ARTIST=%a" -T "TITLE=%t" -T "ALBUM=%g" -T "DATE=%y" -T "TRACKNUMBER=%n" -T "GENRE=%m" %s

TOC of the extracted CD

Track | Start | Length | Start sector | End sector --------------------------------------------------------- 1 | 0:01.00 | 2:14.61 | 75 | 10185 2 | 2:15.61 | 2:26.11 | 10186 | 21146 3 | 4:41.72 | 3:09.24 | 21147 | 35345 4 | 7:51.21 | 2:52.66 | 35346 | 48311 5 | 10:44.12 | 2:30.32 | 48312 | 59593 6 | 13:14.44 | 2:22.52 | 59594 | 70295 7 | 15:37.21 | 2:56.43 | 70296 | 83538 8 | 18:33.64 | 3:04.04 | 83539 | 97342 9 | 21:37.68 | 3:00.27 | 97343 | 110869 10 | 24:38.20 | 2:49.00 | 110870 | 123544 11 | 27:27.20 | 2:24.66 | 123545 | 134410 12 | 29:52.11 | 2:51.24 | 134411 | 147259 13 | 32:43.35 | 2:47.18 | 147260 | 159802 14 | 35:30.53 | 3:04.01 | 159803 | 173603 15 | 38:34.54 | 4:27.01 | 173604 | 193629 16 | 43:01.55 | 2:35.71 | 193630 | 205325 17 | 45:37.51 | 3:23.52 | 205326 | 220602 18 | 49:01.28 | 3:48.27 | 220603 | 237729 19 | 52:49.55 | 3:37.67 | 237730 | 254071 20 | 56:27.47 | 2:28.13 | 254072 | 265184 21 | 58:55.60 | 2:51.55 | 265185 | 278064 22 | 61:47.40 | 2:21.39 | 278065 | 288678 23 | 64:09.04 | 2:37.70 | 288679 | 300523 24 | 66:46.74 | 3:08.35 | 300524 | 314658

Track 1

Filename C:\RIP\Big Band\Les Brown & His Band of Renown\Live 12 May 1957\01-Theme,Swingin' Down The Lane.wav

Pre-gap length 0:00:03.00

Peak level 90.3 % Track quality 99.9 % Test CRC 9DDB3CC9 Copy CRC 9DDB3CC9 Track not present in AccurateRip database Copy OK

Track 2

Filename C:\RIP\Big Band\Les Brown & His Band of Renown\Live 12 May 1957\02-Love Is A Many Splendored Thing.wav

Pre-gap length 0:00:02.66

Peak level 82.4 % Track quality 100.0 % Test CRC E58497F5 Copy CRC E58497F5 Track not present in AccurateRip database Copy OK

Track 3

Filename C:\RIP\Big Band\Les Brown & His Band of Renown\Live 12 May 1957\03-Begin The Beguine.wav

Pre-gap length 0:00:02.66

Peak level 91.6 % Track quality 100.0 % Test CRC BDB90B9A Copy CRC BDB90B9A Track not present in AccurateRip database Copy OK

Track 4

Filename C:\RIP\Big Band\Les Brown & His Band of Renown\Live 12 May 1957\04-Harlem Nocturne.wav

Pre-gap length 0:00:02.66

Peak level 84.7 % Track quality 100.0 % Test CRC 6F933292 Copy CRC 6F933292 Track not present in AccurateRip database Copy OK

Track 5

Filename C:\RIP\Big Band\Les Brown & His Band of Renown\Live 12 May 1957\05-Take Back Your Mink.wav

Pre-gap length 0:00:02.66

Peak level 92.5 % Track quality 99.9 % Test CRC 359CCA7D Copy CRC 359CCA7D Track not present in AccurateRip database Copy OK

Track 6

Filename C:\RIP\Big Band\Les Brown & His Band of Renown\Live 12 May 1957\06-No Not Much.wav

Pre-gap length 0:00:02.66

Peak level 79.6 % Track quality 100.0 % Test CRC 7A1CF310 Copy CRC 7A1CF310 Track not present in AccurateRip database Copy OK

Track 7

Filename C:\RIP\Big Band\Les Brown & His Band of Renown\Live 12 May 1957\07-Cherokee.wav

Pre-gap length 0:00:02.66

Peak level 93.4 % Track quality 100.0 % Test CRC 3FC24609 Copy CRC 3FC24609 Track not present in AccurateRip database Copy OK

Track 8

Filename C:\RIP\Big Band\Les Brown & His Band of Renown\Live 12 May 1957\08-At Sundown.wav

Pre-gap length 0:00:02.66

Peak level 88.9 % Track quality 100.0 % Test CRC E250DC75 Copy CRC E250DC75 Track not present in AccurateRip database Copy OK

Track 9

Filename C:\RIP\Big Band\Les Brown & His Band of Renown\Live 12 May 1957\09-Come Rain Or Come Shine.wav

Pre-gap length 0:00:02.66

Peak level 91.1 % Track quality 100.0 % Test CRC 5A8B2447 Copy CRC 5A8B2447 Track not present in AccurateRip database Copy OK

Track 10

Filename C:\RIP\Big Band\Les Brown & His Band of Renown\Live 12 May 1957\10-Riding High.wav

Pre-gap length 0:00:02.66

Peak level 90.1 % Track quality 99.9 % Test CRC 20B56B84 Copy CRC 20B56B84 Track not present in AccurateRip database Copy OK

Track 11

Filename C:\RIP\Big Band\Les Brown & His Band of Renown\Live 12 May 1957\11-On The Alamo.wav

Pre-gap length 0:00:02.66

Peak level 86.6 % Track quality 100.0 % Test CRC 767F873D Copy CRC 767F873D Track not present in AccurateRip database Copy OK

Track 12

Filename C:\RIP\Big Band\Les Brown & His Band of Renown\Live 12 May 1957\12-Ramona.wav

Pre-gap length 0:00:02.66

Peak level 88.4 % Track quality 99.9 % Test CRC CE476BC8 Copy CRC CE476BC8 Track not present in AccurateRip database Copy OK

Track 13

Filename C:\RIP\Big Band\Les Brown & His Band of Renown\Live 12 May 1957\13-The Continental.wav

Pre-gap length 0:00:02.66

Peak level 90.5 % Track quality 100.0 % Test CRC 41AC0C3A Copy CRC 41AC0C3A Track not present in AccurateRip database Copy OK

Track 14

Filename C:\RIP\Big Band\Les Brown & His Band of Renown\Live 12 May 1957\14-I've Got My Love To Keep Me Warm.wav

Pre-gap length 0:00:02.66

Peak level 84.7 % Track quality 100.0 % Test CRC ABC9254F Copy CRC ABC9254F Track not present in AccurateRip database Copy OK

Track 15

Filename C:\RIP\Big Band\Les Brown & His Band of Renown\Live 12 May 1957\15-Countin' The Blues.wav

Pre-gap length 0:00:02.66

Peak level 88.2 % Track quality 100.0 % Test CRC 82F1EBC3 Copy CRC 82F1EBC3 Track not present in AccurateRip database Copy OK

Track 16

Filename C:\RIP\Big Band\Les Brown & His Band of Renown\Live 12 May 1957\16-Dream.wav

Pre-gap length 0:00:02.66

Peak level 28.3 % Track quality 100.0 % Test CRC F66D6019 Copy CRC F66D6019 Track not present in AccurateRip database Copy OK

Track 17

Filename C:\RIP\Big Band\Les Brown & His Band of Renown\Live 12 May 1957\17-Take The A Train.wav

Pre-gap length 0:00:02.66

Peak level 90.6 % Track quality 100.0 % Test CRC 3FA09045 Copy CRC 3FA09045 Track not present in AccurateRip database Copy OK

Track 18

Filename C:\RIP\Big Band\Les Brown & His Band of Renown\Live 12 May 1957\18-Pink Coats.wav

Pre-gap length 0:00:02.66

Peak level 88.1 % Track quality 100.0 % Test CRC F3BC1D25 Copy CRC F3BC1D25 Track not present in AccurateRip database Copy OK

Track 19

Filename C:\RIP\Big Band\Les Brown & His Band of Renown\Live 12 May 1957\19-Aplle Valley.wav

Pre-gap length 0:00:02.66

Peak level 89.6 % Track quality 100.0 % Test CRC 70F277C9 Copy CRC 70F277C9 Track not present in AccurateRip database Copy OK

Track 20

Filename C:\RIP\Big Band\Les Brown & His Band of Renown\Live 12 May 1957\20-Bizet Has His Day.wav

Pre-gap length 0:00:02.66

Peak level 90.3 % Track quality 100.0 % Test CRC 1755914B Copy CRC 1755914B Track not present in AccurateRip database Copy OK

Track 21

Filename C:\RIP\Big Band\Les Brown & His Band of Renown\Live 12 May 1957\21-Moonlight In Vermont.wav

Pre-gap length 0:00:02.66

Peak level 82.8 % Track quality 100.0 % Test CRC 6ED07090 Copy CRC 6ED07090 Track not present in AccurateRip database Copy OK

Track 22

Filename C:\RIP\Big Band\Les Brown & His Band of Renown\Live 12 May 1957\22-Cecilia.wav

Pre-gap length 0:00:02.66

Peak level 86.4 % Track quality 100.0 % Test CRC F5F5C1E2 Copy CRC F5F5C1E2 Track not present in AccurateRip database Copy OK

Track 23

Filename C:\RIP\Big Band\Les Brown & His Band of Renown\Live 12 May 1957\23-Nina Never Knew.wav

Pre-gap length 0:00:02.66

Peak level 78.9 % Track quality 100.0 % Test CRC F0AA62BA Copy CRC F0AA62BA Track not present in AccurateRip database Copy OK

Track 24

Filename C:\RIP\Big Band\Les Brown & His Band of Renown\Live 12 May 1957\24-Leap Frog.wav

Pre-gap length 0:00:02.66

Peak level 88.9 % Track quality 100.0 % Test CRC E74E4317 Copy CRC E74E4317 Track not present in AccurateRip database Copy OK

None of the tracks are present in the AccurateRip database

No errors occurred

End of status report
 
REM GENRE "Big Band"REM DATE 1998PERFORMER "Les Brown & His Band Of Renown"TITLE "Live 12 May 1957"REM DISCID 7F106218REM COMMENT "ExactAudioCopy v0.99pb4"FILE "01. Theme - Swingin' Down The Lane.flac" WAVE TRACK 01 AUDIO PREGAP 00:01:00 INDEX 01 00:00:00 TRACK 02 AUDIO INDEX 00 02:12:11FILE "02. Love Is A Many Splendored Thing.flac" WAVE INDEX 01 00:00:00 TRACK 03 AUDIO INDEX 00 02:23:36FILE "03. Begin The Beguine.flac" WAVE INDEX 01 00:00:00 TRACK 04 AUDIO INDEX 00 03:06:49FILE "04. Harlem Nocturne.flac" WAVE INDEX 01 00:00:00 TRACK 05 AUDIO INDEX 00 02:50:16FILE "05. Love That Shade Of Blue.flac" WAVE INDEX 01 00:00:00 TRACK 06 AUDIO INDEX 00 02:27:57FILE "06. No Not Much.flac" WAVE INDEX 01 00:00:00 TRACK 07 AUDIO INDEX 00 02:20:02FILE "07. Cherokee.flac" WAVE INDEX 01 00:00:00 TRACK 08 AUDIO INDEX 00 02:53:68FILE "08. At Sundown.flac" WAVE INDEX 01 00:00:00 TRACK 09 AUDIO INDEX 00 03:01:29FILE "09. Come Rain Or Come Shine.flac" WAVE INDEX 01 00:00:00 TRACK 10 AUDIO INDEX 00 02:57:52FILE "10. Riding High.flac" WAVE INDEX 01 00:00:00 TRACK 11 AUDIO INDEX 00 02:46:25FILE "11. On The Alamo.flac" WAVE INDEX 01 00:00:00 TRACK 12 AUDIO INDEX 00 02:22:16FILE "12. Ramona.flac" WAVE INDEX 01 00:00:00 TRACK 13 AUDIO INDEX 00 02:48:49FILE "13. The Continental.flac" WAVE INDEX 01 00:00:00 TRACK 14 AUDIO INDEX 00 02:44:43FILE "14. I've Got My Love To Keep Me Warm.flac" WAVE INDEX 01 00:00:00 TRACK 15 AUDIO INDEX 00 03:01:26FILE "15. Countin' The Blues.flac" WAVE INDEX 01 00:00:00 TRACK 16 AUDIO INDEX 00 04:24:26FILE "16. Dream.flac" WAVE INDEX 01 00:00:00 TRACK 17 AUDIO INDEX 00 02:33:21FILE "17. Take The 'A' Train.flac" WAVE INDEX 01 00:00:00 TRACK 18 AUDIO INDEX 00 03:21:02FILE "18. Pink Coats.flac" WAVE INDEX 01 00:00:00 TRACK 19 AUDIO INDEX 00 03:45:52FILE "19. Aplle Valley.flac" WAVE INDEX 01 00:00:00 TRACK 20 AUDIO INDEX 00 03:35:17FILE "20. Bizet Has His Day.flac" WAVE INDEX 01 00:00:00 TRACK 21 AUDIO INDEX 00 02:25:38FILE "21. Moonlight In Vermont.flac" WAVE INDEX 01 00:00:00 TRACK 22 AUDIO INDEX 00 02:49:05FILE "22. Cecilia.flac" WAVE INDEX 01 00:00:00 TRACK 23 AUDIO INDEX 00 02:18:64FILE "23. Nina Never Knew.flac" WAVE INDEX 01 00:00:00 TRACK 24 AUDIO INDEX 00 02:35:20FILE "24. Leap Frog.flac" WAVE INDEX 01 00:00:00
 
[CUETools log; Date: 10.02.2012 15:32:32; Version: 2.0.9]Pregap length 00:01:00.[CTDB TOCID: hSZOiKVlGlXOD7rW9DPh4j.xmGk-] disk not present in database.[AccurateRip ID: 003a7fcc-04024e29-7f106218] found.Track [ CRC ] Status 01 [067883bf] (1/1) Accurately ripped 02 [8d7d2d00] (1/1) Accurately ripped 03 [e3e19e9c] (1/1) Accurately ripped 04 [0dd9ddcb] (1/1) Accurately ripped 05 [adb0f061] (1/1) Accurately ripped 06 [b7d3d307] (1/1) Accurately ripped 07 [e9daf7b6] (1/1) Accurately ripped 08 [b0427ca9] (1/1) Accurately ripped 09 [4619df95] (1/1) Accurately ripped 10 [5e6e0e99] (1/1) Accurately ripped 11 [d936143b] (1/1) Accurately ripped 12 [1e97d840] (1/1) Accurately ripped 13 [ad4db028] (1/1) Accurately ripped 14 [fecc79b1] (1/1) Accurately ripped 15 [037bfb7c] (1/1) Accurately ripped 16 [83e5dff8] (1/1) Accurately ripped 17 [4740f4b2] (1/1) Accurately ripped 18 [291de707] (1/1) Accurately ripped 19 [c1b658de] (1/1) Accurately ripped 20 [60c13c51] (1/1) Accurately ripped 21 [48590f0e] (1/1) Accurately ripped 22 [5f35e16b] (1/1) Accurately ripped 23 [6c1a7d2f] (1/1) Accurately ripped 24 [386b0c25] (1/1) Accurately ripped

Track Peak [ CRC32 ] [W/O NULL] [ LOG ] -- 93,4 [90C14249] [0060FE97] 01 90,3 [9DDB3CC9] [286BA882] CRC32 02 82,4 [E58497F5] [879B7638] CRC32 03 91,6 [BDB90B9A] [CB5EB258] CRC32 04 84,7 [6F933292] [8D145401] CRC32 05 92,5 [359CCA7D] [AC0D4947] CRC32 06 79,6 [7A1CF310] [AD841760] CRC32 07 93,4 [3FC24609] [7107DF8B] CRC32 08 88,9 [E250DC75] [4AC1666C] CRC32 09 91,1 [5A8B2447] [34749729] CRC32 10 90,1 [20B56B84] [75602B00] CRC32 11 86,6 [767F873D] [827826D2] CRC32 12 88,4 [CE476BC8] [FAD56B07] CRC32 13 90,5 [41AC0C3A] [8360E869] CRC32 14 84,7 [ABC9254F] [80CEE46D] CRC32 15 88,2 [82F1EBC3] [F8F98529] CRC32 16 28,3 [F66D6019] [8833C81C] CRC32 17 90,6 [3FA09045] [CC427BF9] CRC32 18 88,1 [F3BC1D25] [7FAAA3B2] CRC32 19 89,6 [70F277C9] [81EF6A51] CRC32 20 90,3 [1755914B] [5C838A42] CRC32 21 82,8 [6ED07090] [BAFCE76D] CRC32 22 86,3 [F5F5C1E2] [C781DDA0] CRC32 23 78,9 [F0AA62BA] [EA1450E9] CRC32 24 88,9 [E74E4317] [CED8117A] CRC32


Трекер:  [ 12-Фев-2012 16:52 ]

  

Скачать .torrent

Размер .torrent файла 18 KB


Размер: 414 MB
Хэш (hash) релиза: d53a449615cd625a9f892cb9292aaaa59727a286

Еще никто не оставлял запись к записи скачать торрент Les Brown & His Band Of Renown - Live 12 May 1957 - 1998, FLAC . Будь первым!

!Обратная связь