Скачать через торрент музыку Les Brown And His Band Of Renown - The Les Brown Songbook - 1998, FLAC бесплатно без регистрации torrent

Если у вас наблюдаются проблемы со скриншотами, переходом по ссылками, скачиванием торрентов - проблемы в блокировщике рекламы AdBlock. #хорошегоДня!


Статистика раздачи
Размер:  236 MB   |    Зарегистрирован:  5 лет 8 месяцев   |    .torrent скачан:  29 раз   |   
Раздают:  1  
   
Загрузка...
 
Автор Сообщение

Umakiro

avatar Umakiro


Les Brown And His Band Of Renown – The Les Brown Songbook

Жанр: Big Band
Год издания диска: 1998
Аудиокодек: FLAC (*.flac)
Тип рипа: tracks+.cue
Битрейт аудио: lossless
Продолжительность: 50:34
Источник: вата
Наличие сканов в содержимом раздачи: нет

Треклист:
01. Leap Frog (2:44)
02. Back In Your Own Backyard (3:00)
03. Red Sails In The Sunset (2:42)
04. Bernie's Tune (2:36)
05. Ramona (2:53)
06. Into Each Life Some Rain Must Fall (2:47)
07. Stormy Weather (3:30)
08. It's Alright With Me (2:43)
09. Sentimental Journey (3:22)
10. That Old Black Magic (3:20)
11. You Are My Sunshine (2:44)
12. Flamingo (3:14)
13. New Mexican Hat Dance (2:28)
14. I've Got My Love To Keep Me Warm (2:58)
15. The Milkman's Matinee (2:27)
16. Nutcracker Suite (7:06)
 
 
Exact Audio Copy V0.99 prebeta 4 from 23. January 2008

EAC extraction logfile from 5. July 2009, 23:50

Les Brown / The Les Brown Songbook

Used drive : TSSTcorpCD/DVDW TS-H552L Adapter: 5 ID: 0

Read mode : SecureUtilize accurate stream : YesDefeat audio cache : YesMake use of C2 pointers : No

Read offset correction : 6Overread into Lead-In and Lead-Out : NoFill up missing offset samples with silence : YesDelete leading and trailing silent blocks : NoNull samples used in CRC calculations : YesUsed interface : Native Win32 interface for Win NT & 2000Gap handling : Appended to previous track

Used output format : User Defined EncoderSelected bitrate : 128 kBit/sQuality : HighAdd ID3 tag : NoCommand line compressor : C:\Program Files\Exact Audio Copy\FLAC\FLAC.EXEAdditional command line options : --best -T "ARTIST=%a" -T "TITLE=%t" -T "ALBUM=%g" -T "DATE=%y" -T "TRACKNUMBER=%n" -T "GENRE=%m" %s

TOC of the extracted CD

Track | Start | Length | Start sector | End sector --------------------------------------------------------- 1 | 0:00.00 | 2:43.52 | 0 | 12276 2 | 2:43.52 | 3:00.10 | 12277 | 25786 3 | 5:43.62 | 2:42.03 | 25787 | 37939 4 | 8:25.65 | 2:36.10 | 37940 | 49649 5 | 11:02.00 | 2:52.47 | 49650 | 62596 6 | 13:54.47 | 2:47.08 | 62597 | 75129 7 | 16:41.55 | 3:30.30 | 75130 | 90909 8 | 20:12.10 | 2:43.05 | 90910 | 103139 9 | 22:55.15 | 3:21.55 | 103140 | 118269 10 | 26:16.70 | 3:20.30 | 118270 | 133299 11 | 29:37.25 | 2:44.30 | 133300 | 145629 12 | 32:21.55 | 3:13.50 | 145630 | 160154 13 | 35:35.30 | 2:28.02 | 160155 | 171256 14 | 38:03.32 | 2:57.45 | 171257 | 184576 15 | 41:01.02 | 2:27.25 | 184577 | 195626 16 | 43:28.27 | 7:05.68 | 195627 | 227569

Track 1

Filename C:\RIP\Big Band\Les Brown\The Les Brown Songbook\01-Leap Frog.wav

Pre-gap length 0:00:02.00

Peak level 83.7 % Track quality 99.9 % Test CRC E88FC9AD Copy CRC E88FC9AD Track not present in AccurateRip database Copy OK

Track 2

Filename C:\RIP\Big Band\Les Brown\The Les Brown Songbook\02-Back In Your Own Backyard.wav

Pre-gap length 0:00:02.49

Peak level 79.0 % Track quality 100.0 % Test CRC 3526AF53 Copy CRC 3526AF53 Track not present in AccurateRip database Copy OK

Track 3

Filename C:\RIP\Big Band\Les Brown\The Les Brown Songbook\03-Red Sails In The Sunset.wav

Pre-gap length 0:00:02.49

Peak level 100.0 % Track quality 99.9 % Test CRC F517457D Copy CRC F517457D Track not present in AccurateRip database Copy OK

Track 4

Filename C:\RIP\Big Band\Les Brown\The Les Brown Songbook\04-Bernie's Tune.wav

Pre-gap length 0:00:02.50

Peak level 100.0 % Track quality 100.0 % Test CRC A30AEE3A Copy CRC A30AEE3A Track not present in AccurateRip database Copy OK

Track 5

Filename C:\RIP\Big Band\Les Brown\The Les Brown Songbook\05-Ramona.wav

Pre-gap length 0:00:01.93

Peak level 75.5 % Track quality 100.0 % Test CRC 280E298A Copy CRC 280E298A Track not present in AccurateRip database Copy OK

Track 6

Filename C:\RIP\Big Band\Les Brown\The Les Brown Songbook\06-Into Each Life Some Rain Must Fall.wav

Pre-gap length 0:00:02.49

Peak level 90.0 % Track quality 100.0 % Test CRC 1629E1B9 Copy CRC 1629E1B9 Track not present in AccurateRip database Copy OK

Track 7

Filename C:\RIP\Big Band\Les Brown\The Les Brown Songbook\07-Stormy Weather.wav

Pre-gap length 0:00:02.50

Peak level 88.7 % Track quality 100.0 % Test CRC D865E5DF Copy CRC D865E5DF Track not present in AccurateRip database Copy OK

Track 8

Filename C:\RIP\Big Band\Les Brown\The Les Brown Songbook\08-It's Alright With Me.wav

Pre-gap length 0:00:02.73

Peak level 86.4 % Track quality 100.0 % Test CRC 5B013EBF Copy CRC 5B013EBF Track not present in AccurateRip database Copy OK

Track 9

Filename C:\RIP\Big Band\Les Brown\The Les Brown Songbook\09-Sentimental Journey.wav

Pre-gap length 0:00:02.53

Peak level 88.7 % Track quality 100.0 % Test CRC 0B3D4C01 Copy CRC 0B3D4C01 Track not present in AccurateRip database Copy OK

Track 10

Filename C:\RIP\Big Band\Les Brown\The Les Brown Songbook\10-That Old Black Magic.wav

Pre-gap length 0:00:02.61

Peak level 93.9 % Track quality 100.0 % Test CRC 09497459 Copy CRC 09497459 Track not present in AccurateRip database Copy OK

Track 11

Filename C:\RIP\Big Band\Les Brown\The Les Brown Songbook\11-You Are My Sunshine.wav

Pre-gap length 0:00:02.60

Peak level 96.1 % Track quality 100.0 % Test CRC F3A3F8F8 Copy CRC F3A3F8F8 Track not present in AccurateRip database Copy OK

Track 12

Filename C:\RIP\Big Band\Les Brown\The Les Brown Songbook\12-Flamingo.wav

Pre-gap length 0:00:02.53

Peak level 84.7 % Track quality 100.0 % Test CRC F407A6E9 Copy CRC F407A6E9 Track not present in AccurateRip database Copy OK

Track 13

Filename C:\RIP\Big Band\Les Brown\The Les Brown Songbook\13-New Mexican Hat Dance.wav

Pre-gap length 0:00:02.53

Peak level 68.8 % Track quality 100.0 % Test CRC D19F35FE Copy CRC D19F35FE Track not present in AccurateRip database Copy OK

Track 14

Filename C:\RIP\Big Band\Les Brown\The Les Brown Songbook\14-I've Got My Love To Keep Me Warm.wav

Pre-gap length 0:00:02.60

Peak level 99.9 % Track quality 100.0 % Test CRC 536CB766 Copy CRC 536CB766 Track not present in AccurateRip database Copy OK

Track 15

Filename C:\RIP\Big Band\Les Brown\The Les Brown Songbook\15-The Milkman's Matinee.wav

Pre-gap length 0:00:02.66

Peak level 83.7 % Track quality 100.0 % Test CRC 5A8F16D1 Copy CRC 5A8F16D1 Track not present in AccurateRip database Copy OK

Track 16

Filename C:\RIP\Big Band\Les Brown\The Les Brown Songbook\16-Nutcracker Suite.wav

Pre-gap length 0:00:02.53

Peak level 95.3 % Track quality 100.0 % Test CRC 29EADDE8 Copy CRC 29EADDE8 Track not present in AccurateRip database Copy OK

None of the tracks are present in the AccurateRip database

No errors occurred

End of status report
 
REM GENRE "Big Band"REM DATE 1998REM DISCID D90BDA10REM COMMENT "ExactAudioCopy v0.99pb4"PERFORMER "Les Brown And His Band Of Renown"TITLE "The Les Brown Songbook"FILE "01. Leap Frog.flac" WAVE TRACK 01 AUDIO INDEX 01 00:00:00 TRACK 02 AUDIO INDEX 00 02:41:15FILE "02. Back In Your Own Backyard.flac" WAVE INDEX 01 00:00:00 TRACK 03 AUDIO INDEX 00 02:57:48FILE "03. Red Sails In The Sunset.flac" WAVE INDEX 01 00:00:00 TRACK 04 AUDIO INDEX 00 02:39:40FILE "04. Bernie's Tune.flac" WAVE INDEX 01 00:00:00 TRACK 05 AUDIO INDEX 00 02:34:15FILE "05. Ramona.flac" WAVE INDEX 01 00:00:00 TRACK 06 AUDIO INDEX 00 02:50:10FILE "06. Into Each Life Some Rain Must Fall.flac" WAVE INDEX 01 00:00:00 TRACK 07 AUDIO INDEX 00 02:44:45FILE "07. Stormy Weather.flac" WAVE INDEX 01 00:00:00 TRACK 08 AUDIO INDEX 00 03:27:50FILE "08. It's Alright With Me.flac" WAVE INDEX 01 00:00:00 TRACK 09 AUDIO INDEX 00 02:40:40FILE "09. Sentimental Journey.flac" WAVE INDEX 01 00:00:00 TRACK 10 AUDIO INDEX 00 03:19:09FILE "10. That Old Black Magic.flac" WAVE INDEX 01 00:00:00 TRACK 11 AUDIO INDEX 00 03:17:60FILE "11. You Are My Sunshine.flac" WAVE INDEX 01 00:00:00 TRACK 12 AUDIO INDEX 00 02:41:65FILE "12. Flamingo.flac" WAVE INDEX 01 00:00:00 TRACK 13 AUDIO INDEX 00 03:11:10FILE "13. New Mexican Hat Dance.flac" WAVE INDEX 01 00:00:00 TRACK 14 AUDIO INDEX 00 02:25:32FILE "14. I've Got My Love To Keep Me Warm.flac" WAVE INDEX 01 00:00:00 TRACK 15 AUDIO INDEX 00 02:54:70FILE "15. The Milkman's Matinee.flac" WAVE INDEX 01 00:00:00 TRACK 16 AUDIO INDEX 00 02:24:60FILE "16. Nutcracker Suite.flac" WAVE INDEX 01 00:00:00
 
[CUETools log; Date: 10.02.2012 16:20:22; Version: 2.0.9][CTDB TOCID: TL9D1ej24cMs4cYviPAUpBFKWZ4-] disk not present in database.[AccurateRip ID: 001b5f19-014b276c-d90bda10] found.Track [ CRC ] Status 01 [06a5c1f7] (1/1) Accurately ripped 02 [2ce43548] (1/1) Accurately ripped 03 [55a172f3] (1/1) Accurately ripped 04 [c22229aa] (1/1) Accurately ripped 05 [f69d8175] (1/1) Accurately ripped 06 [28ea6360] (1/1) Accurately ripped 07 [2e5fec54] (1/1) Accurately ripped 08 [505a208b] (1/1) Accurately ripped 09 [323fe8be] (1/1) Accurately ripped 10 [eef18a5c] (1/1) Accurately ripped 11 [7227eeac] (1/1) Accurately ripped 12 [98d3b7d5] (1/1) Accurately ripped 13 [4ea6b0f2] (1/1) Accurately ripped 14 [1f079fe4] (1/1) Accurately ripped 15 [e0434ca1] (1/1) Accurately ripped 16 [fb09ea23] (1/1) Accurately ripped

Track Peak [ CRC32 ] [W/O NULL] [ LOG ] -- 100,0 [37FE3F02] [3634FFD4] 01 83,7 [E88FC9AD] [864585FD] CRC32 02 79,0 [3526AF53] [32ADCF81] CRC32 03 100,0 [F517457D] [3B140D92] CRC32 04 100,0 [A30AEE3A] [74E5A3C9] CRC32 05 75,5 [280E298A] [46DE49AD] CRC32 06 90,0 [1629E1B9] [25795FAF] CRC32 07 88,7 [D865E5DF] [75A8C154] CRC32 08 86,4 [5B013EBF] [E6188235] CRC32 09 88,7 [0B3D4C01] [6CDA61C5] CRC32 10 93,9 [09497459] [6E550E4F] CRC32 11 96,1 [F3A3F8F8] [C9DDF688] CRC32 12 84,7 [F407A6E9] [1384F134] CRC32 13 68,8 [D19F35FE] [AFA0BAF6] CRC32 14 99,9 [536CB766] [1A69BC72] CRC32 15 83,7 [5A8F16D1] [8B46917D] CRC32 16 95,3 [29EADDE8] [21ACB760] CRC32


Трекер:  [ 12-Фев-2012 16:51 ]

  

Скачать .torrent

Размер .torrent файла 20 KB


Размер: 236 MB
Хэш (hash) релиза: 22372b7afe0d9ffc68eb4197271bb63f67f1f9f8

Еще никто не оставлял запись к записи скачать торрент Les Brown And His Band Of Renown - The Les Brown Songbook - 1998, FLAC . Будь первым!

!Обратная связь