Скачать через торрент музыку Ella Fitzgerald - Clap Hands, Here Comes Charlie! бесплатно без регистрации torrent

Если у вас наблюдаются проблемы со скриншотами, переходом по ссылками, скачиванием торрентов - проблемы в блокировщике рекламы AdBlock. #хорошегоДня!


Статистика раздачи
Размер:  359 MB   |    Зарегистрирован:  5 лет 8 месяцев   |    .torrent скачан:  33 раза   |   
Раздают:  1  
   
Загрузка...
 
Автор Сообщение

Umakiro

avatar Umakiro


Ella Fitzgerald – Clap Hands, Here Comes Charlie! (1961)

Жанр: Vocal Jazz
Год издания диска: 1989
Издатель (лейбл): Verve
Номер по каталогу: 835 646-2
Аудиокодек: FLAC (*.flac)
Тип рипа: tracks+.cue
Битрейт аудио: lossless
Продолжительность: 59:30
Источник: вата
Наличие сканов в содержимом раздачи: да + альтернативные

Треклист:
01. Night In Tunisia (4:11)
02. You're My Thrill (3:39)
03. My Reverie (3:20)
04. Stella By Starlight (3:21)
05. 'Round Midnight (3:32)
06. Jersey Bounce (3:36)
07. Signing Off (3:49)
08. Cry Me A River (4:17)
09. This Year's Kisses (2:18)
10. Good Morning Heartache (4:21)
11. (I Was) Born To Be Blue (2:46)
12. Clap Hands, Here Comes Charlie! (2:46)
13. Spring Can Really Hang You Up The Most (6:17)
14. Music Goes 'Round & Around (2:31)
15. The One I Love Belongs To Somebody Else (2:16)
16. I Got A Guy (3:45)
17. This Could Be The Start Of Something Big (2:44)
 
 
Exact Audio Copy V0.99 prebeta 5 from 4. May 2009

EAC extraction logfile from 12. December 2009, 14:19

Ella Fitzgerald / Clap Hands, Here Comes Charlie!

Used drive : SlimtypeDVD A DS8A1H Adapter: 0 ID: 0

Read mode : SecureUtilize accurate stream : YesDefeat audio cache : YesMake use of C2 pointers : No

Read offset correction : 594Overread into Lead-In and Lead-Out : NoFill up missing offset samples with silence : YesDelete leading and trailing silent blocks : NoNull samples used in CRC calculations : YesUsed interface : Native Win32 interface for Win NT & 2000Gap handling : Appended to previous track

Used output format : User Defined EncoderSelected bitrate : 128 kBit/sQuality : HighAdd ID3 tag : NoCommand line compressor : C:\Program Files\Exact Audio Copy\Flac\flac.exeAdditional command line options : -8 -V -T "ARTIST=%a" -T "TITLE=%t" -T "ALBUM=%g" -T "DATE=%y" -T "TRACKNUMBER=%n" -T "GENRE=%m" -T "COMMENT=EAC FLAC -8" %s

TOC of the extracted CD

Track | Start | Length | Start sector | End sector --------------------------------------------------------- 1 | 0:00.33 | 4:10.50 | 33 | 18832 2 | 4:11.08 | 3:39.25 | 18833 | 35282 3 | 7:50.33 | 3:20.12 | 35283 | 50294 4 | 11:10.45 | 3:21.13 | 50295 | 65382 5 | 14:31.58 | 3:31.62 | 65383 | 81269 6 | 18:03.45 | 3:36.00 | 81270 | 97469 7 | 21:39.45 | 3:49.25 | 97470 | 114669 8 | 25:28.70 | 4:17.00 | 114670 | 133944 9 | 29:45.70 | 2:18.00 | 133945 | 144294 10 | 32:03.70 | 4:21.25 | 144295 | 163894 11 | 36:25.20 | 2:45.38 | 163895 | 176307 12 | 39:10.58 | 2:46.00 | 176308 | 188757 13 | 41:56.58 | 6:17.25 | 188758 | 217057 14 | 48:14.08 | 2:30.62 | 217058 | 228369 15 | 50:44.70 | 2:16.13 | 228370 | 238582 16 | 53:01.08 | 3:45.37 | 238583 | 255494 17 | 56:46.45 | 2:43.50 | 255495 | 267769

Track 1

Filename C:\My upload for BTMusic\Ella Fitzgerald - Clap Hands, Here Comes Charlie! (1962) [FLAC] {Verve}\01 - Night In Tunisia.wav

Pre-gap length 0:00:02.44

Peak level 89.8 % Track quality 100.0 % Test CRC 5DA0141C Copy CRC 5DA0141C Cannot be verified as accurate (confidence 8) [299537F0], AccurateRip returned [773115E2] Copy OK

Track 2

Filename C:\My upload for BTMusic\Ella Fitzgerald - Clap Hands, Here Comes Charlie! (1962) [FLAC] {Verve}\02 - You're My Thrill.wav

Pre-gap length 0:00:03.17

Peak level 52.4 % Track quality 100.0 % Test CRC 4BA844FC Copy CRC 4BA844FC Cannot be verified as accurate (confidence 9) [B22B9766], AccurateRip returned [4A5C507A] Copy OK

Track 3

Filename C:\My upload for BTMusic\Ella Fitzgerald - Clap Hands, Here Comes Charlie! (1962) [FLAC] {Verve}\03 - My Reverie.wav

Pre-gap length 0:00:03.17

Peak level 96.0 % Track quality 99.8 % Test CRC 4BF301EC Copy CRC 4BF301EC Cannot be verified as accurate (confidence 10) [E9BF9ADF], AccurateRip returned [AFE7849D] Copy OK

Track 4

Filename C:\My upload for BTMusic\Ella Fitzgerald - Clap Hands, Here Comes Charlie! (1962) [FLAC] {Verve}\04 - Stella By Starlight.wav

Pre-gap length 0:00:03.82

Peak level 94.0 % Track quality 100.0 % Test CRC AE5A6672 Copy CRC AE5A6672 Cannot be verified as accurate (confidence 10) [CB2A5D62], AccurateRip returned [0DF9529A] Copy OK

Track 5

Filename C:\My upload for BTMusic\Ella Fitzgerald - Clap Hands, Here Comes Charlie! (1962) [FLAC] {Verve}\05 - 'Round Midnight.wav

Pre-gap length 0:00:03.50

Peak level 57.1 % Track quality 99.9 % Test CRC 14DCC638 Copy CRC 14DCC638 Cannot be verified as accurate (confidence 10) [4894702B], AccurateRip returned [4769F2C9] Copy OK

Track 6

Filename C:\My upload for BTMusic\Ella Fitzgerald - Clap Hands, Here Comes Charlie! (1962) [FLAC] {Verve}\06 - Jersey Bounce.wav

Pre-gap length 0:00:04.16

Peak level 90.9 % Track quality 100.0 % Test CRC 6D14C83C Copy CRC 6D14C83C Cannot be verified as accurate (confidence 10) [6335B1B6], AccurateRip returned [A491C19A] Copy OK

Track 7

Filename C:\My upload for BTMusic\Ella Fitzgerald - Clap Hands, Here Comes Charlie! (1962) [FLAC] {Verve}\07 - Signing Off.wav

Pre-gap length 0:00:02.66

Peak level 60.7 % Track quality 100.0 % Test CRC 00EF1EF7 Copy CRC 00EF1EF7 Cannot be verified as accurate (confidence 10) [6555C511], AccurateRip returned [DE442C87] Copy OK

Track 8

Filename C:\My upload for BTMusic\Ella Fitzgerald - Clap Hands, Here Comes Charlie! (1962) [FLAC] {Verve}\08 - Cry Me A River.wav

Pre-gap length 0:00:03.16

Peak level 85.5 % Track quality 99.9 % Test CRC 4F43C330 Copy CRC 4F43C330 Cannot be verified as accurate (confidence 10) [71E3B902], AccurateRip returned [FE0B6ACC] Copy OK

Track 9

Filename C:\My upload for BTMusic\Ella Fitzgerald - Clap Hands, Here Comes Charlie! (1962) [FLAC] {Verve}\09 - This Year's Kisses.wav

Pre-gap length 0:00:03.49

Peak level 93.3 % Track quality 100.0 % Test CRC A2607271 Copy CRC A2607271 Cannot be verified as accurate (confidence 10) [4442BC6E], AccurateRip returned [01A20AD6] Copy OK

Track 10

Filename C:\My upload for BTMusic\Ella Fitzgerald - Clap Hands, Here Comes Charlie! (1962) [FLAC] {Verve}\10 - Good Morning Heartache.wav

Pre-gap length 0:00:03.16

Peak level 76.0 % Track quality 99.9 % Test CRC 5AC90FD7 Copy CRC 5AC90FD7 Cannot be verified as accurate (confidence 9) [441395FA], AccurateRip returned [9DECE8EE] Copy OK

Track 11

Filename C:\My upload for BTMusic\Ella Fitzgerald - Clap Hands, Here Comes Charlie! (1962) [FLAC] {Verve}\11 - (I Was) Born To Be Blue.wav

Pre-gap length 0:00:03.00

Peak level 74.4 % Track quality 100.0 % Test CRC 6AC2ABC7 Copy CRC 6AC2ABC7 Cannot be verified as accurate (confidence 10) [EB666D95], AccurateRip returned [726AD943] Copy OK

Track 12

Filename C:\My upload for BTMusic\Ella Fitzgerald - Clap Hands, Here Comes Charlie! (1962) [FLAC] {Verve}\12 - Clap Hands, Here Comes Charlie!.wav

Pre-gap length 0:00:03.50

Peak level 91.1 % Track quality 100.0 % Test CRC 001748F4 Copy CRC 001748F4 Cannot be verified as accurate (confidence 10) [6AAD0971], AccurateRip returned [1E6F5747] Copy OK

Track 13

Filename C:\My upload for BTMusic\Ella Fitzgerald - Clap Hands, Here Comes Charlie! (1962) [FLAC] {Verve}\13 - Spring Can Really Hang You Up The Most.wav

Pre-gap length 0:00:03.17

Peak level 80.1 % Track quality 100.0 % Test CRC 2379CD4A Copy CRC 2379CD4A Cannot be verified as accurate (confidence 9) [66E9EAC1], AccurateRip returned [BC0142F7] Copy OK

Track 14

Filename C:\My upload for BTMusic\Ella Fitzgerald - Clap Hands, Here Comes Charlie! (1962) [FLAC] {Verve}\14 - Music Goes 'Round & Around.wav

Pre-gap length 0:00:03.50

Peak level 92.7 % Track quality 100.0 % Test CRC EED00B68 Copy CRC EED00B68 Cannot be verified as accurate (confidence 10) [CD0F6AEB], AccurateRip returned [A1676D3B] Copy OK

Track 15

Filename C:\My upload for BTMusic\Ella Fitzgerald - Clap Hands, Here Comes Charlie! (1962) [FLAC] {Verve}\15 - The One I Love Belongs To Somebody Else.wav

Pre-gap length 0:00:02.82

Peak level 93.3 % Track quality 100.0 % Test CRC 25B3AE05 Copy CRC 25B3AE05 Cannot be verified as accurate (confidence 10) [CF6FC2BB], AccurateRip returned [1266E89B] Copy OK

Track 16

Filename C:\My upload for BTMusic\Ella Fitzgerald - Clap Hands, Here Comes Charlie! (1962) [FLAC] {Verve}\16 - I Got A Guy.wav

Pre-gap length 0:00:03.00

Peak level 68.5 % Track quality 100.0 % Test CRC 17A47989 Copy CRC 17A47989 Cannot be verified as accurate (confidence 10) [8CBE3E13], AccurateRip returned [8CACC597] Copy OK

Track 17

Filename C:\My upload for BTMusic\Ella Fitzgerald - Clap Hands, Here Comes Charlie! (1962) [FLAC] {Verve}\17 - This Could Be The Start Of Something Big.wav

Pre-gap length 0:00:02.00

Peak level 85.8 % Track quality 100.0 % Test CRC C107A8A5 Copy CRC C107A8A5 Cannot be verified as accurate (confidence 9) [E3992302], AccurateRip returned [7F0C546E] Copy OK

No tracks could be verified as accurateYou may have a different pressing from the one(s) in the database

No errors occurred

End of status report
 
REM GENRE VocalREM DATE 1964REM DISCID F00DF211REM COMMENT "ExactAudioCopy v0.99pb5"PERFORMER "Ella Fitzgerald"TITLE "Clap Hands, Here Comes Charlie!"FILE "01 - Night In Tunisia.wav" WAVE TRACK 01 AUDIO TITLE "Night In Tunisia " PERFORMER "Ella Fitzgerald" PREGAP 00:00:33 INDEX 01 00:00:00 TRACK 02 AUDIO TITLE "You're My Thrill" PERFORMER "Ella Fitzgerald" INDEX 00 04:07:37FILE "02 - You're My Thrill.wav" WAVE INDEX 01 00:00:00 TRACK 03 AUDIO TITLE "My Reverie" PERFORMER "Ella Fitzgerald" INDEX 00 03:36:12FILE "03 - My Reverie.wav" WAVE INDEX 01 00:00:00 TRACK 04 AUDIO TITLE "Stella By Starlight" PERFORMER "Ella Fitzgerald" INDEX 00 03:16:25FILE "04 - Stella By Starlight.wav" WAVE INDEX 01 00:00:00 TRACK 05 AUDIO TITLE "'Round Midnight" PERFORMER "Ella Fitzgerald" INDEX 00 03:17:50FILE "05 - 'Round Midnight.wav" WAVE INDEX 01 00:00:00 TRACK 06 AUDIO TITLE "Jersey Bounce" PERFORMER "Ella Fitzgerald" INDEX 00 03:27:50FILE "06 - Jersey Bounce.wav" WAVE INDEX 01 00:00:00 TRACK 07 AUDIO TITLE "Signing Off" PERFORMER "Ella Fitzgerald" INDEX 00 03:33:25FILE "07 - Signing Off.wav" WAVE INDEX 01 00:00:00 TRACK 08 AUDIO TITLE "Cry Me A River" PERFORMER "Ella Fitzgerald" INDEX 00 03:46:13FILE "08 - Cry Me A River.wav" WAVE INDEX 01 00:00:00 TRACK 09 AUDIO TITLE "This Year's Kisses" PERFORMER "Ella Fitzgerald" INDEX 00 04:13:38FILE "09 - This Year's Kisses.wav" WAVE INDEX 01 00:00:00 TRACK 10 AUDIO TITLE "Good Morning Heartache" PERFORMER "Ella Fitzgerald" INDEX 00 02:14:63FILE "10 - Good Morning Heartache.wav" WAVE INDEX 01 00:00:00 TRACK 11 AUDIO TITLE "(I Was) Born To Be Blue" PERFORMER "Ella Fitzgerald" INDEX 00 04:18:25FILE "11 - (I Was) Born To Be Blue.wav" WAVE INDEX 01 00:00:00 TRACK 12 AUDIO TITLE "Clap Hands, Here Comes Charlie!" PERFORMER "Ella Fitzgerald" INDEX 00 02:42:00FILE "12 - Clap Hands, Here Comes Charlie!.wav" WAVE INDEX 01 00:00:00 TRACK 13 AUDIO TITLE "Spring Can Really Hang You Up The Most" PERFORMER "Ella Fitzgerald" INDEX 00 02:42:62FILE "13 - Spring Can Really Hang You Up The Most.wav" WAVE INDEX 01 00:00:00 TRACK 14 AUDIO TITLE "Music Goes 'Round & Around" PERFORMER "Ella Fitzgerald" INDEX 00 06:13:62FILE "14 - Music Goes 'Round & Around.wav" WAVE INDEX 01 00:00:00 TRACK 15 AUDIO TITLE "The One I Love Belongs To Somebody Else" PERFORMER "Ella Fitzgerald" INDEX 00 02:28:00FILE "15 - The One I Love Belongs To Somebody Else.wav" WAVE INDEX 01 00:00:00 TRACK 16 AUDIO TITLE "I Got A Guy" PERFORMER "Ella Fitzgerald" INDEX 00 02:13:13FILE "16 - I Got A Guy.wav" WAVE INDEX 01 00:00:00 TRACK 17 AUDIO TITLE "This Could Be The Start Of Something Big" PERFORMER "Ella Fitzgerald" INDEX 00 03:43:37FILE "17 - This Could Be The Start Of Something Big.wav" WAVE INDEX 01 00:00:00
 
[CUETools log; Date: 10.02.2012 18:21:06; Version: 2.0.9]Pregap length 00:00:33.[CTDB TOCID: oTc8cZp8XZMXi6c3szws3z6yd8A-] found. [ CTDBID ] Status [1d9dde5e] (8/8) Differs in 2 samples @43:28:53[AccurateRip ID: 0025ce92-01dc7398-f00df211] found.Track [ CRC ] Status 01 [299537f0] (03/32) Accurately ripped 02 [b22b9766] (03/32) Accurately ripped 03 [e9bf9adf] (03/35) Accurately ripped 04 [cb2a5d62] (02/32) Accurately ripped 05 [4894702b] (02/33) Accurately ripped 06 [6335b1b6] (02/32) Accurately ripped 07 [6555c511] (02/33) Accurately ripped 08 [71e3b902] (03/35) Accurately ripped 09 [4442bc6e] (02/34) Accurately ripped 10 [441395fa] (02/33) Accurately ripped 11 [eb666d95] (02/34) Accurately ripped 12 [6aad0971] (02/34) Accurately ripped 13 [66e9eac1] (02/32) Accurately ripped 14 [cd0f6aeb] (02/34) Accurately ripped 15 [cf6fc2bb] (02/33) Accurately ripped 16 [8cbe3e13] (02/32) Accurately ripped 17 [e3992302] (03/33) Accurately rippedOffsetted by -664: 01 [78fb2fa8] (09/32) Accurately ripped 02 [72b16616] (09/32) Accurately ripped 03 [4404b867] (09/35) Accurately ripped 04 [18ab8a82] (09/32) Accurately ripped 05 [2fbe3233] (09/33) Accurately ripped 06 [22d35126] (09/32) Accurately ripped 07 [365ecdb9] (08/33) Accurately ripped 08 [3a9b7b5a] (09/35) Accurately ripped 09 [f8f158ce] (09/34) Accurately ripped 10 [2a77c52a] (09/33) Accurately ripped 11 [75caa75d] (09/34) Accurately ripped 12 [4e2f2099] (09/34) Accurately ripped 13 [e3ef8069] (09/32) Accurately ripped 14 [7afeadab] (09/34) Accurately ripped 15 [b738f33b] (09/33) Accurately ripped 16 [49a5d703] (09/32) Accurately ripped 17 [ec180a52] (09/33) Accurately rippedOffsetted by 669: 01 [55bb34b7] (03/32) Accurately ripped 02 [0ea7dc5c] (03/32) Accurately ripped 03 [658bb440] (03/35) Accurately ripped 04 [5e9e93c6] (03/32) Accurately ripped 05 [b2f4011c] (03/33) Accurately ripped 06 [fde90144] (03/32) Accurately ripped 07 [1a6fc096] (03/33) Accurately ripped 08 [989fc8dd] (03/35) Accurately ripped 09 [011c103a] (03/34) Accurately ripped 10 [1502b200] (03/33) Accurately ripped 11 [e18237fe] (03/34) Accurately ripped 12 [2eb525c6] (03/34) Accurately ripped 13 [b60f15e6] (03/32) Accurately ripped 14 [35b82fc3] (03/34) Accurately ripped 15 [8ec5d3cb] (03/33) Accurately ripped 16 [0e6a7dd1] (02/32) Accurately ripped 17 [0dee18cc] (03/33) Accurately rippedOffsetted by 1350: 01 [773115e2] (17/32) Accurately ripped 02 [4a5c507a] (17/32) Accurately ripped 03 [afe7849d] (20/35) Accurately ripped 04 [0df9529a] (18/32) Accurately ripped 05 [4769f2c9] (19/33) Accurately ripped 06 [a491c19a] (18/32) Accurately ripped 07 [de442c87] (20/33) Accurately ripped 08 [fe0b6acc] (20/35) Accurately ripped 09 [01a20ad6] (20/34) Accurately ripped 10 [9dece8ee] (19/33) Accurately ripped 11 [726ad943] (20/34) Accurately ripped 12 [1e6f5747] (20/34) Accurately ripped 13 [bc0142f7] (18/32) Accurately ripped 14 [a1676d3b] (20/34) Accurately ripped 15 [1266e89b] (19/33) Accurately ripped 16 [8cacc597] (19/32) Accurately ripped 17 [7f0c546e] (18/33) Accurately ripped

Track Peak [ CRC32 ] [W/O NULL] [ LOG ] -- 96,0 [53120165] [3C0F39AE] 01 89,8 [5DA0141C] [D020FEC1] CRC32 02 52,4 [4BA844FC] [AF25A957] CRC32 03 96,0 [4BF301EC] [9DA4387F] CRC32 04 94,0 [AE5A6672] [26EA9DA8] CRC32 05 57,1 [14DCC638] [F7D5EBBA] CRC32 06 90,9 [6D14C83C] [04666682] CRC32 07 60,7 [00EF1EF7] [E9E3F040] CRC32 08 85,5 [4F43C330] [F21E240B] CRC32 09 93,3 [A2607271] [12994484] CRC32 10 76,0 [5AC90FD7] [C438A090] CRC32 11 74,4 [6AC2ABC7] [CFFFC5DD] CRC32 12 91,1 [001748F4] [2F225DB5] CRC32 13 80,1 [2379CD4A] [84C1FBC4] CRC32 14 92,7 [EED00B68] [B39BD441] CRC32 15 93,3 [25B3AE05] [D7B06AD4] CRC32 16 68,5 [17A47989] [56EE4126] CRC32 17 85,8 [C107A8A5] [A181CFC4] CRC32


Трекер:  [ 12-Фев-2012 16:50 ]

  

Скачать .torrent

Размер .torrent файла 16 KB


Размер: 359 MB
Хэш (hash) релиза: a6924ab4da5eac719e3ccbb87569fee42885956a

Еще никто не оставлял запись к записи скачать торрент Ella Fitzgerald - Clap Hands, Here Comes Charlie! . Будь первым!

!Обратная связь