Скачать через торрент музыку Irakere - Exuberancia бесплатно без регистрации torrent

Если у вас наблюдаются проблемы со скриншотами, переходом по ссылками, скачиванием торрентов - проблемы в блокировщике рекламы AdBlock. #хорошегоДня!


Статистика раздачи
Размер:  401 MB   |    Зарегистрирован:  5 лет 8 месяцев   |    .torrent скачан:  36 раз   |   
Раздают:  1  
   
Загрузка...
 
Автор Сообщение

Umakiro

avatar Umakiro


Irakere – Exuberancia

Жанр: Latin Jazz
Год издания диска: 1994
Издатель (лейбл): Jazz House
Номер по каталогу: JHCD 009
Аудиокодек: FLAC (*.flac)
Тип рипа: tracks+.cue
Битрейт аудио: lossless
Продолжительность: 65:43
Релизер: tiburon
Наличие сканов в содержимом раздачи: front, back

Треклист:
01. Xiomara (8:33)
02. El guayo de Catalina (7:30)
03. Changó (11:27)
04. El reencuentro (6:39)
05. Samba para Enrique (10:02)
06. El guao (8:42)
07. Bown Music (4:38)
08. Guantanamera (5:34)
09. Bown Music (encore) (2:39)

Personnel:
Chucho Valdes - keyboards
Oscar Valdes - percussion, vocals
Enrique Pla - drums, Cuban percussion
Carlos Morales - guitar
Carlos Del Puerto - bass
Miguel "Anga" Diaz - conga drums, Cuban percussion
Orlando Valle - flute, keyboards
Javier Zaiba - baritone and soprano sax, flute, clarinet
Cesar Lopez - alto and soprano saxes
Carlos Alvarez - trombone, vocals
Manuel Machado - trumpet
Jorge Varona - trumpet

Rec.: live at Ronnie Scott's Jazz Club, London, England, 1988.
 
 
Exact Audio Copy V0.99 prebeta 4 from 23. January 2008

EAC extraction logfile from 18. June 2010, 20:29

Irakere / Exuberancia

Used drive : TSSTcorpCDDVDW TS-H653N Adapter: 2 ID: 2

Read mode : SecureUtilize accurate stream : YesDefeat audio cache : YesMake use of C2 pointers : No

Read offset correction : 6Overread into Lead-In and Lead-Out : NoFill up missing offset samples with silence : YesDelete leading and trailing silent blocks : NoNull samples used in CRC calculations : YesUsed interface : Native Win32 interface for Win NT & 2000Gap handling : Appended to previous track

Used output format : User Defined EncoderSelected bitrate : 1024 kBit/sQuality : HighAdd ID3 tag : NoCommand line compressor : C:\Program Files\FLAC -\flac.exeAdditional command line options : -5 -V -T "artist=%a" -T "title=%t" -T "album=%g" -T "date=%y" -T "tracknumber=%n" -T "genre=%m" -T comment="shared by pastafari cubensis" %s

TOC of the extracted CD

Track | Start | Length | Start sector | End sector --------------------------------------------------------- 1 | 0:00.32 | 8:32.38 | 32 | 38469 2 | 8:32.70 | 7:30.05 | 38470 | 72224 3 | 16:03.00 | 11:26.65 | 72225 | 123739 4 | 27:29.65 | 6:38.42 | 123740 | 153631 5 | 34:08.32 | 10:02.10 | 153632 | 198791 6 | 44:10.42 | 8:41.55 | 198792 | 237921 7 | 52:52.22 | 4:37.68 | 237922 | 258764 8 | 57:30.15 | 5:33.65 | 258765 | 283804 9 | 63:04.05 | 2:39.27 | 283805 | 295756

Track 1

Filename C:\CD_buffer\Irakere - 1988 - Exuberancia [FLAC]\01- Xiomara.wav

Pre-gap length 0:00:02.42

Peak level 94.4 % Track quality 100.0 % Test CRC 4496B73E Copy CRC 4496B73E Copy OK

Track 2

Filename C:\CD_buffer\Irakere - 1988 - Exuberancia [FLAC]\02- El guayo de Catalina.wav

Peak level 94.4 % Track quality 100.0 % Test CRC CBF3FBF4 Copy CRC CBF3FBF4 Copy OK

Track 3

Filename C:\CD_buffer\Irakere - 1988 - Exuberancia [FLAC]\03- Changу.wav

Peak level 94.4 % Track quality 100.0 % Test CRC 2B25AB10 Copy CRC 2B25AB10 Copy OK

Track 4

Filename C:\CD_buffer\Irakere - 1988 - Exuberancia [FLAC]\04- El reencuentro.wav

Peak level 91.2 % Track quality 100.0 % Test CRC DA16A034 Copy CRC DA16A034 Copy OK

Track 5

Filename C:\CD_buffer\Irakere - 1988 - Exuberancia [FLAC]\05- Samba para Enrique.wav

Peak level 94.4 % Track quality 100.0 % Test CRC 5F242FB9 Copy CRC 5F242FB9 Copy OK

Track 6

Filename C:\CD_buffer\Irakere - 1988 - Exuberancia [FLAC]\06- El guao.wav

Peak level 94.4 % Track quality 100.0 % Test CRC FC896725 Copy CRC FC896725 Copy OK

Track 7

Filename C:\CD_buffer\Irakere - 1988 - Exuberancia [FLAC]\07- Bown Music.wav

Pre-gap length 0:00:02.56

Peak level 84.7 % Track quality 100.0 % Test CRC B8B189B7 Copy CRC B8B189B7 Copy OK

Track 8

Filename C:\CD_buffer\Irakere - 1988 - Exuberancia [FLAC]\08- Guantanamera.wav

Peak level 94.4 % Track quality 100.0 % Test CRC D6BE1CEC Copy CRC D6BE1CEC Copy OK

Track 9

Filename C:\CD_buffer\Irakere - 1988 - Exuberancia [FLAC]\09- Bown Music (encore).wav

Peak level 90.8 % Track quality 100.0 % Test CRC 7457FFDE Copy CRC 7457FFDE Copy OK

No errors occurred

End of status report
 
REM GENRE JazzREM DATE 1988REM DISCID 780F6709REM COMMENT "ExactAudioCopy v0.99pb4"PERFORMER "Irakere"TITLE "Exuberancia"FILE "01 - Xiomara.flac" WAVE TRACK 01 AUDIO TITLE "Xiomara" PERFORMER "Irakere" PREGAP 00:00:32 INDEX 01 00:00:00FILE "02 - El guayo de Catalina.flac" WAVE TRACK 02 AUDIO TITLE "El guayo de Catalina" PERFORMER "Irakere" INDEX 01 00:00:00FILE "03 - Changу.flac" WAVE TRACK 03 AUDIO TITLE "Changу" PERFORMER "Irakere" INDEX 01 00:00:00FILE "04 - El reencuentro.flac" WAVE TRACK 04 AUDIO TITLE "El reencuentro" PERFORMER "Irakere" INDEX 01 00:00:00FILE "05 - Samba para Enrique.flac" WAVE TRACK 05 AUDIO TITLE "Samba para Enrique" PERFORMER "Irakere" INDEX 01 00:00:00FILE "06 - El guao.flac" WAVE TRACK 06 AUDIO TITLE "El guao" PERFORMER "Irakere" INDEX 01 00:00:00 TRACK 07 AUDIO TITLE "Bown Music" PERFORMER "Irakere" INDEX 00 08:39:13FILE "07 - Bown Music.flac" WAVE INDEX 01 00:00:00FILE "08 - Guantanamera.flac" WAVE TRACK 08 AUDIO TITLE "Guantanamera" PERFORMER "Irakere" INDEX 01 00:00:00FILE "09 - Bown Music (encore).flac" WAVE TRACK 09 AUDIO TITLE "Bown Music (encore)" PERFORMER "Irakere" INDEX 01 00:00:00
 
[CUETools log; Date: 11.02.2012 9:19:15; Version: 2.0.9]Pregap length 00:00:32.[CTDB TOCID: T48PKulcsyGP4u1hyVhlvUx50yo-] disk not present in database.[AccurateRip ID: 001960a4-00b70eec-780f6709] found.Track [ CRC ] Status 01 [be1e7578] (0/2) No match 02 [dab4622a] (0/2) No match 03 [90e144fc] (0/2) No match 04 [dc4322ff] (0/2) No match 05 [d2b9c807] (0/2) No match 06 [403b53b5] (0/2) No match 07 [5b74474d] (0/2) No match 08 [41276581] (0/2) No match 09 [2e5b9960] (0/2) No matchOffsetted by 71: 01 [ced4549a] (2/2) Accurately ripped 02 [fde461ed] (2/2) Accurately ripped 03 [3dbd4b37] (2/2) Accurately ripped 04 [3fe4354f] (2/2) Accurately ripped 05 [d9251579] (2/2) Accurately ripped 06 [4c22d218] (2/2) Accurately ripped 07 [64ad3797] (2/2) Accurately ripped 08 [05154d50] (2/2) Accurately ripped 09 [aeedb931] (2/2) Accurately ripped

Track Peak [ CRC32 ] [W/O NULL] [ LOG ] -- 94,4 [8D49D0F6] [3E513B92] 01 94,4 [4496B73E] [8CE993D7] CRC32 02 94,4 [CBF3FBF4] [A511BDB6] CRC32 03 94,4 [2B25AB10] [7C78D2B7] CRC32 04 91,2 [DA16A034] [EF12B9DF] CRC32 05 94,4 [5F242FB9] [6F3178BA] CRC32 06 94,4 [FC896725] [F169D739] CRC32 07 84,7 [B8B189B7] [914CBDDD] CRC32 08 94,4 [D6BE1CEC] [86C3F4A7] CRC32 09 90,8 [7457FFDE] [64C125C9] CRC32


Трекер:  [ 12-Фев-2012 16:50 ]

  

Скачать .torrent

Размер .torrent файла 17 KB


Размер: 401 MB
Хэш (hash) релиза: c0813346876c751514519854476e9ddadb08840d

Еще никто не оставлял запись к записи скачать торрент Irakere - Exuberancia . Будь первым!

!Обратная связь