Скачать через торрент музыку Grupo Irakere - Chekere бесплатно без регистрации torrent

Если у вас наблюдаются проблемы со скриншотами, переходом по ссылками, скачиванием торрентов - проблемы в блокировщике рекламы AdBlock. #хорошегоДня!


Статистика раздачи
Размер:  278 MB   |    Зарегистрирован:  5 лет 8 месяцев   |    .torrent скачан:  31 раз   |   
Раздают:  1  
   
Загрузка...
 
Автор Сообщение

Umakiro

avatar Umakiro


Grupo Irakere – Chekere (1976)

Жанр: Latin Jazz
Год издания диска: 1998
Издатель (лейбл): Love Records/Siboney
Номер по каталогу: CUCD 7
Аудиокодек: FLAC (*.flac)
Тип рипа: tracks+.cue
Битрейт аудио: lossless
Продолжительность: 44:23
Релизер: tiburon
Наличие сканов в содержимом раздачи: да

Треклист:
01. Chereke Son (6:52)
02. 38 1/2 (5:16)
03. En Nosotros (4:26)
04. Juana 1600 (5:56)
05. Moja El Pan (3:55)
06. Este Camino Largo (6:50)
07. Xiomara (5:35)
08. Illa (5:34)

Personnel:
Jesus "Chucho" Valdes - piano, electric piano, moog
Francisco "Paquito" D'Rivera - alto and baritone saxes, flute
Carlos Averoff - tenor and soprano saxes, flute, vocals
Arturo Sandoval - trumpet, percussion, vocals
Carlos Puerto - alectric bass
Carlos Emilio Morales - guitar
Enrique Pla - drums, percussion
Jorge Alfonso - tumbadora, bata, percussion
Carlos Barbon - guiro, cherekes, tambourine, percussion
Oscar Valdes - tumbadora, bata, bongos, percussion, vocals
 
In 1976 Irakere visited Finland to play at a jazz festival (Turku Jazz) and that was before being known to American audiences. This is the album they recorded back then, mostly live on the studio, and although these songs have appeared in several compilations, you can't find these exact versions anywhere else.

Have you seen that obscure album cover with the iconic Oscar Valdés picture? Are you one of those looking for that killer studio version of Juana 1600? This is that album and this is the original Irakere line-up with Chucho, Paquito, Sandoval and the rest.

Irakere in Finland. What a little treasure!
 
 
Exact Audio Copy V0.99 prebeta 5 from 4. May 2009

EAC extraction logfile from 22. April 2011, 1:36

Irakere / Chekere

Used drive : TSSTcorpCDDVDW TS-H653N Adapter: 2 ID: 2

Read mode : SecureUtilize accurate stream : YesDefeat audio cache : YesMake use of C2 pointers : No

Read offset correction : 6Overread into Lead-In and Lead-Out : NoFill up missing offset samples with silence : YesDelete leading and trailing silent blocks : NoNull samples used in CRC calculations : YesUsed interface : Native Win32 interface for Win NT & 2000Gap handling : Appended to previous track

Used output format : User Defined EncoderSelected bitrate : 128 kBit/sQuality : HighAdd ID3 tag : NoCommand line compressor : C:\Program Files\Exact Audio Copy\Flac\flac.exeAdditional command line options : -5 -V -T "artist=%a" -T "title=%t" -T "album=%g" -T "date=%y" -T "tracknumber=%n" -T "genre=%m" -T "comment=shared by pastafari cubensis" %s

TOC of the extracted CD

Track | Start | Length | Start sector | End sector --------------------------------------------------------- 1 | 0:00.00 | 6:51.60 | 0 | 30884 2 | 6:51.60 | 5:16.02 | 30885 | 54586 3 | 12:07.62 | 4:26.33 | 54587 | 74569 4 | 16:34.20 | 5:55.70 | 74570 | 101264 5 | 22:30.15 | 3:54.40 | 101265 | 118854 6 | 26:24.55 | 6:49.40 | 118855 | 149569 7 | 33:14.20 | 5:34.45 | 149570 | 174664 8 | 38:48.65 | 5:34.05 | 174665 | 199719

Track 1

Filename C:\pastafari\Irakere - 1998 - Chekere [FLAC]\01 - Chereke Son.wav

Pre-gap length 0:00:02.00

Peak level 97.7 % Track quality 100.0 % Test CRC D82BDCD0 Copy CRC D82BDCD0 Copy OK

Track 2

Filename C:\pastafari\Irakere - 1998 - Chekere [FLAC]\02 - 38 1,2.wav

Pre-gap length 0:00:02.53

Peak level 97.7 % Track quality 100.0 % Test CRC 9CD18C6B Copy CRC 9CD18C6B Copy OK

Track 3

Filename C:\pastafari\Irakere - 1998 - Chekere [FLAC]\03 - En Nosotros.wav

Pre-gap length 0:00:02.56

Peak level 100.0 % Track quality 100.0 % Test CRC 602BA7AB Copy CRC 602BA7AB Copy OK

Track 4

Filename C:\pastafari\Irakere - 1998 - Chekere [FLAC]\04 - Juana 1600.wav

Pre-gap length 0:00:02.53

Peak level 97.7 % Track quality 100.0 % Test CRC AA8FE24E Copy CRC AA8FE24E Copy OK

Track 5

Filename C:\pastafari\Irakere - 1998 - Chekere [FLAC]\05 - Moja El Pan.wav

Pre-gap length 0:00:02.60

Peak level 97.7 % Track quality 100.0 % Test CRC 737A1E39 Copy CRC 737A1E39 Copy OK

Track 6

Filename C:\pastafari\Irakere - 1998 - Chekere [FLAC]\06 - Este Camino Largo.wav

Pre-gap length 0:00:02.53

Peak level 97.7 % Track quality 100.0 % Test CRC 37CC5A90 Copy CRC 37CC5A90 Copy OK

Track 7

Filename C:\pastafari\Irakere - 1998 - Chekere [FLAC]\07 - Xiomara.wav

Pre-gap length 0:00:02.60

Peak level 97.7 % Track quality 100.0 % Test CRC 08B21E98 Copy CRC 08B21E98 Copy OK

Track 8

Filename C:\pastafari\Irakere - 1998 - Chekere [FLAC]\08 - Illa.wav

Pre-gap length 0:00:02.53

Peak level 97.7 % Track quality 99.9 % Test CRC 7F90BF61 Copy CRC 7F90BF61 Copy OK

No errors occurred

End of status report
 
REM GENRE JazzREM DATE 1976REM DISCID 740A6608REM COMMENT "ExactAudioCopy v0.99pb5"PERFORMER "Irakere"TITLE "Chekere"FILE "01. Chereke Son.flac" WAVE TRACK 01 AUDIO TITLE "Chereke Son" PERFORMER "Irakere" INDEX 01 00:00:00 TRACK 02 AUDIO TITLE "38 1/2" PERFORMER "Irakere" INDEX 00 06:49:20FILE "02. 38 1-2.flac" WAVE INDEX 01 00:00:00 TRACK 03 AUDIO TITLE "En Nosotros" PERFORMER "Irakere" INDEX 00 05:13:35FILE "03. En Nosotros.flac" WAVE INDEX 01 00:00:00 TRACK 04 AUDIO TITLE "Juana 1600" PERFORMER "Irakere" INDEX 00 04:23:68FILE "04. Juana 1600.flac" WAVE INDEX 01 00:00:00 TRACK 05 AUDIO TITLE "Moja El Pan" PERFORMER "Irakere" INDEX 00 05:53:25FILE "05. Moja El Pan.flac" WAVE INDEX 01 00:00:00 TRACK 06 AUDIO TITLE "Este Camino Largo" PERFORMER "Irakere" INDEX 00 03:52:00FILE "06. Este Camino Largo.flac" WAVE INDEX 01 00:00:00 TRACK 07 AUDIO TITLE "Xiomara" PERFORMER "Irakere" INDEX 00 06:46:70FILE "07. Xiomara.flac" WAVE INDEX 01 00:00:00 TRACK 08 AUDIO TITLE "Illa" PERFORMER "Irakere" INDEX 00 05:32:05FILE "08. Illa.flac" WAVE INDEX 01 00:00:00
 
[CUETools log; Date: 11.02.2012 19:58:17; Version: 2.0.9][CTDB TOCID: FiBIs4fD8pw4OQ0grQb.aCo.kKQ-] disk not present in database.[AccurateRip ID: 000dcbb5-005b5321-740a6608] found.Track [ CRC ] Status 01 [bf9a3876] (1/1) Accurately ripped 02 [55051e08] (1/1) Accurately ripped 03 [92fe5ea8] (1/1) Accurately ripped 04 [e2dfe768] (1/1) Accurately ripped 05 [db2ac472] (1/1) Accurately ripped 06 [f303ba75] (1/1) Accurately ripped 07 [b5be9026] (1/1) Accurately ripped 08 [265f3d06] (1/1) Accurately ripped

Track Peak [ CRC32 ] [W/O NULL] -- 100,0 [F18B2B2A] [4B0B24AA] 01 97,7 [D82BDCD0] [12DC548D] 02 97,7 [9CD18C6B] [6BFD60C2] 03 100,0 [602BA7AB] [8E2B3616] 04 97,7 [AA8FE24E] [2CC93A87] 05 97,7 [737A1E39] [9763040A] 06 97,7 [37CC5A90] [A2FB564B] 07 97,7 [08B21E98] [0191F409] 08 97,7 [7F90BF61] [85F281E3]


Трекер:  [ 12-Фев-2012 16:49 ]

  

Скачать .torrent

Размер .torrent файла 12 KB


Размер: 278 MB
Хэш (hash) релиза: d5b2044580f38dcab7b1a43baf8ff241b3e6d65e

Еще никто не оставлял запись к записи скачать торрент Grupo Irakere - Chekere . Будь первым!

!Обратная связь