Скачать через торрент музыку Lena Horne - Being Myself - 1998, FLAC бесплатно без регистрации torrent

Если у вас наблюдаются проблемы со скриншотами, переходом по ссылками, скачиванием торрентов - проблемы в блокировщике рекламы AdBlock. #хорошегоДня!


Статистика раздачи
Размер:  215 MB   |    Зарегистрирован:  5 лет 8 месяцев   |    .torrent скачан:  32 раза   |   
Раздают:  1  
   
Загрузка...
 
Автор Сообщение

Umakiro

avatar Umakiro


Lena Horne – Being Myself

Жанр: Vocal Jazz
Год издания диска: 1998
Издатель (лейбл): Blue Note
Аудиокодек: FLAC (*.flac)
Тип рипа: tracks+.cue
Битрейт аудио: lossless
Продолжительность: 38:29

01. Some Of My Best Friends Are The Blues (3:43)
02. As Long As I Live (2:28)
03. Autumn In New York (4:26)
04. It's Alright With Me (3:17)
05. Sleepin' Bee (3:37)
06. Imagination (5:49)
07. How Long Has This Been Going On? (4:43)
08. After You (3:15)
09. Willow Weep For Me (3:54)
10. What Am I Here For? (3:18)

Rec.: 1998.
 
 
Exact Audio Copy V0.99 prebeta 4 from 23. January 2008

EAC extraction logfile from 8. July 2009, 19:04

Lena Horne / Being Myself

Used drive : PIONEER DVD-RW DVR-112D Adapter: 2 ID: 0

Read mode : SecureUtilize accurate stream : YesDefeat audio cache : YesMake use of C2 pointers : No

Read offset correction : 48Overread into Lead-In and Lead-Out : NoFill up missing offset samples with silence : YesDelete leading and trailing silent blocks : NoNull samples used in CRC calculations : YesUsed interface : Native Win32 interface for Win NT & 2000Gap handling : Appended to previous track

Used output format : User Defined EncoderSelected bitrate : 1024 kBit/sQuality : HighAdd ID3 tag : NoCommand line compressor : c:\program files\flac\flac.exeAdditional command line options : -V -8 -T "artist=%a" -T "title=%t" -T "album=%g" -T "date=%y" -T "tracknumber=%n" -T "genre=%m" %s

TOC of the extracted CD

Track | Start | Length | Start sector | End sector --------------------------------------------------------- 1 | 0:00.00 | 3:42.67 | 0 | 16716 2 | 3:42.67 | 2:27.48 | 16717 | 27789 3 | 6:10.40 | 4:25.62 | 27790 | 47726 4 | 10:36.27 | 3:16.73 | 47727 | 62499 5 | 13:53.25 | 3:36.72 | 62500 | 78771 6 | 17:30.22 | 5:49.15 | 78772 | 104961 7 | 23:19.37 | 4:42.53 | 104962 | 126164 8 | 28:02.15 | 3:15.35 | 126165 | 140824 9 | 31:17.50 | 3:54.02 | 140825 | 158376 10 | 35:11.52 | 3:17.38 | 158377 | 173189

Track 1

Filename 01 - Some Of My Best Friends Are The Blues.wav

Pre-gap length 0:00:02.00

Peak level 100.0 % Track quality 100.0 % Test CRC 702E68E0 Copy CRC 702E68E0 Accurately ripped (confidence 4) [5F1A8896] Copy OK

Track 2

Filename 02 - As Long As I Live.wav

Pre-gap length 0:00:00.37

Peak level 96.4 % Track quality 100.0 % Test CRC CB99A834 Copy CRC CB99A834 Accurately ripped (confidence 4) [C4481709] Copy OK

Track 3

Filename 03 - Autumn In New York.wav

Pre-gap length 0:00:00.68

Peak level 98.9 % Track quality 100.0 % Test CRC 9EE9FA43 Copy CRC 9EE9FA43 Accurately ripped (confidence 4) [03067BCF] Copy OK

Track 4

Filename 04 - It's Alright With Me.wav

Pre-gap length 0:00:00.29

Peak level 100.0 % Track quality 100.0 % Test CRC 2159C308 Copy CRC 2159C308 Accurately ripped (confidence 4) [2CD16E59] Copy OK

Track 5

Filename 05 - Sleepin' Bee.wav

Pre-gap length 0:00:00.85

Peak level 100.0 % Track quality 100.0 % Test CRC 8BBF6F00 Copy CRC 8BBF6F00 Accurately ripped (confidence 4) [BA8472D7] Copy OK

Track 6

Filename 06 - Imagination.wav

Pre-gap length 0:00:00.37

Peak level 100.0 % Track quality 100.0 % Test CRC 3968FB7A Copy CRC 3968FB7A Accurately ripped (confidence 4) [7B402510] Copy OK

Track 7

Filename 07 - How Long Has This Been Going On .wav

Pre-gap length 0:00:00.94

Peak level 100.0 % Track quality 100.0 % Test CRC 5698C0E2 Copy CRC 5698C0E2 Accurately ripped (confidence 4) [0F620D4D] Copy OK

Track 8

Filename 08 - After You.wav

Pre-gap length 0:00:00.97

Peak level 98.8 % Track quality 99.9 % Test CRC 2F115CE9 Copy CRC 2F115CE9 Accurately ripped (confidence 4) [AE046BB9] Copy OK

Track 9

Filename 09 - Willow Weep For Me.wav

Pre-gap length 0:00:01.12

Peak level 100.0 % Track quality 100.0 % Test CRC B0B9C459 Copy CRC B0B9C459 Accurately ripped (confidence 4) [7394FDDA] Copy OK

Track 10

Filename 10 - What Am I Here For .wav

Pre-gap length 0:00:00.58

Peak level 97.2 % Track quality 100.0 % Test CRC 20414111 Copy CRC 20414111 Accurately ripped (confidence 4) [E2372D16] Copy OK

All tracks accurately ripped

No errors occurred

End of status report
 
REM GENRE VocalREM DATE 1998REM DISCID 7809050AREM COMMENT "ExactAudioCopy v0.99pb4"PERFORMER "Lena Horne"TITLE "Being Myself"FILE "01. Some Of My Best Friends Are The Blues.flac" WAVE TRACK 01 AUDIO TITLE "Some Of My Best Friends Are The Blues" PERFORMER "Lena Horne" INDEX 01 00:00:00 TRACK 02 AUDIO TITLE "As Long As I Live" PERFORMER "Lena Horne" INDEX 00 03:42:39FILE "02. As Long As I Live.flac" WAVE INDEX 01 00:00:00 TRACK 03 AUDIO TITLE "Autumn In New York" PERFORMER "Lena Horne" INDEX 00 02:26:72FILE "03. Autumn In New York.flac" WAVE INDEX 01 00:00:00 TRACK 04 AUDIO TITLE "It's Alright With Me" PERFORMER "Lena Horne" INDEX 00 04:25:40FILE "04. It's Alright With Me.flac" WAVE INDEX 01 00:00:00 TRACK 05 AUDIO TITLE "Sleepin' Bee" PERFORMER "Lena Horne" INDEX 00 03:16:09FILE "05. Sleepin' Bee.flac" WAVE INDEX 01 00:00:00 TRACK 06 AUDIO TITLE "Imagination" PERFORMER "Lena Horne" INDEX 00 03:36:44FILE "06. Imagination.flac" WAVE INDEX 01 00:00:00 TRACK 07 AUDIO TITLE "How Long Has This Been Going On?" PERFORMER "Lena Horne" INDEX 00 05:48:19FILE "07. How Long Has This Been Going On.flac" WAVE INDEX 01 00:00:00 TRACK 08 AUDIO TITLE "After You" PERFORMER "Lena Horne" INDEX 00 04:41:55FILE "08. After You.flac" WAVE INDEX 01 00:00:00 TRACK 09 AUDIO TITLE "Willow Weep For Me" PERFORMER "Lena Horne" INDEX 00 03:14:26FILE "09. Willow Weep For Me.flac" WAVE INDEX 01 00:00:00 TRACK 10 AUDIO TITLE "What Am I Here For?" PERFORMER "Lena Horne" INDEX 00 03:53:33FILE "10. What Am I Here For.flac" WAVE INDEX 01 00:00:00
 
[CUETools log; Date: 12.02.2012 0:00:40; Version: 2.0.9][CTDB TOCID: Hz6Qgo6K2MwZbLo6a8kix3kUk_c-] disk not present in database.[AccurateRip ID: 000e4c41-0073dce0-7809050a] found.Track [ CRC ] Status 01 [5f1a8896] (4/4) Accurately ripped 02 [c4481709] (4/4) Accurately ripped 03 [03067bcf] (4/4) Accurately ripped 04 [2cd16e59] (4/4) Accurately ripped 05 [ba8472d7] (4/4) Accurately ripped 06 [7b402510] (4/4) Accurately ripped 07 [0f620d4d] (4/4) Accurately ripped 08 [ae046bb9] (4/4) Accurately ripped 09 [7394fdda] (4/4) Accurately ripped 10 [e2372d16] (4/4) Accurately ripped

Track Peak [ CRC32 ] [W/O NULL] [ LOG ] -- 100,0 [8277AAC4] [F91B8D2F] 01 100,0 [702E68E0] [054B3A19] CRC32 02 96,4 [CB99A834] [6D86A94E] CRC32 03 98,9 [9EE9FA43] [B6190E92] CRC32 04 100,0 [2159C308] [3EF8E8B4] CRC32 05 99,9 [8BBF6F00] [5581EC63] CRC32 06 100,0 [3968FB7A] [23E44FB2] CRC32 07 100,0 [5698C0E2] [6BA54CBC] CRC32 08 98,8 [2F115CE9] [7E24BB91] CRC32 09 100,0 [B0B9C459] [D85EE7FC] CRC32 10 97,2 [20414111] [B8FA0609] CRC32


Трекер:  [ 12-Фев-2012 16:48 ]

  

Скачать .torrent

Размер .torrent файла 18 KB


Размер: 215 MB
Хэш (hash) релиза: 6c8b3bb61cac1a0199e92a52aa269b788e67afed

Еще никто не оставлял запись к записи скачать торрент Lena Horne - Being Myself - 1998, FLAC . Будь первым!

!Обратная связь