Скачать через торрент музыку Elvin Jones And Richard Davis - Heavy Sounds бесплатно без регистрации torrent

Если у вас наблюдаются проблемы со скриншотами, переходом по ссылками, скачиванием торрентов - проблемы в блокировщике рекламы AdBlock. #хорошегоДня!


Статистика раздачи
Размер:  250 MB   |    Зарегистрирован:  5 лет 8 месяцев   |    .torrent скачан:  31 раз   |   
Раздают:  1  
   
Загрузка...
 
Автор Сообщение

Umakiro

avatar Umakiro


Elvin Jones And Richard Davis – Heavy Sounds (1969)

Жанр: Post-Bop, Hard Bop
Год издания диска: 1999
Издатель (лейбл): Impulse!
Номер по каталогу: 547 959-2
Аудиокодек: FLAC (*.flac)
Тип рипа: tracks+.cue
Битрейт аудио: lossless
Продолжительность: 41:38
Rip by mishka1981
Наличие сканов в содержимом раздачи: да

Треклист:
01. Raunchy Rita (11:35)
02. Shiny Stockings (5:13)
03. M. E. (2:40)
04. Summertime (11:38)
05. Elvin's Guitar Blues (3:29)
06. Here's That Rainy Day (7:02)

Personnel:
Frank Foster - ts (1-3, 5, 6)
Billy Greene - p (1, 3, 5, 6)
Richard Davis - b
Elvin Jones - d, g (5)

Rec.: RCA Recording Studio, NYC, NY, June 19 (#4) & 20 (#1-3, 5, 6), 1967.
 
 
Exact Audio Copy V1.0 beta 1 from 15. November 2010

EAC extraction logfile from 11. February 2012, 13:20

Elvin Jones & Richard Davis / Heavy Sounds

Used drive : Optiarc DVD RW AD-7710H Adapter: 1 ID: 0

Read mode : SecureUtilize accurate stream : YesDefeat audio cache : YesMake use of C2 pointers : No

Read offset correction : 48Overread into Lead-In and Lead-Out : NoFill up missing offset samples with silence : YesDelete leading and trailing silent blocks : NoNull samples used in CRC calculations : YesUsed interface : Native Win32 interface for Win NT & 2000Gap handling : Appended to previous track

Used output format : User Defined EncoderSelected bitrate : 896 kBit/sQuality : HighAdd ID3 tag : NoCommand line compressor : C:\Program Files\Exact Audio Copy\FLAC\FLAC.EXEAdditional command line options : -8 -V -T "ARTIST=%a" -T "TITLE=%t" -T "ALBUM=%g" -T "DATE=%y" -T "TRACKNUMBER=%n" -T "GENRE=%m" -T "COMMENT=%e" %j--picture="%i"%j %s -o %d

TOC of the extracted CD

Track | Start | Length | Start sector | End sector --------------------------------------------------------- 1 | 0:00.00 | 11:35.30 | 0 | 52154 2 | 11:35.30 | 5:13.15 | 52155 | 75644 3 | 16:48.45 | 2:40.22 | 75645 | 87666 4 | 19:28.67 | 11:37.68 | 87667 | 140009 5 | 31:06.60 | 3:29.12 | 140010 | 155696 6 | 34:35.72 | 7:02.30 | 155697 | 187376

Track 1

Filename C:\MY RIPS\01 - Raunchy Rita.wav

Pre-gap length 0:00:02.00

Peak level 84.4 % Extraction speed 3.4 X Track quality 100.0 % Test CRC A3ACCBCF Copy CRC A3ACCBCF Accurately ripped (confidence 6) [88D16A86] Copy OK

Track 2

Filename C:\MY RIPS\02 - Shiny Stockings.wav

Pre-gap length 0:00:03.15

Peak level 90.0 % Extraction speed 3.8 X Track quality 100.0 % Test CRC 98F06697 Copy CRC 98F06697 Accurately ripped (confidence 6) [2247059E] Copy OK

Track 3

Filename C:\MY RIPS\03 - M. E..wav

Pre-gap length 0:00:02.63

Peak level 79.0 % Extraction speed 3.6 X Track quality 100.0 % Test CRC 72A07364 Copy CRC 72A07364 Accurately ripped (confidence 6) [384F21F9] Copy OK

Track 4

Filename C:\MY RIPS\04 - Summertime.wav

Pre-gap length 0:00:02.62

Peak level 96.7 % Extraction speed 4.6 X Track quality 100.0 % Test CRC 640B1B6E Copy CRC 640B1B6E Accurately ripped (confidence 6) [CD095859] Copy OK

Track 5

Filename C:\MY RIPS\05 - Elvin's Guitar Blues.wav

Pre-gap length 0:00:03.15

Peak level 76.6 % Extraction speed 4.5 X Track quality 100.0 % Test CRC 302AC5FB Copy CRC 302AC5FB Accurately ripped (confidence 6) [C58EF005] Copy OK

Track 6

Filename C:\MY RIPS\06 - Here's That Rainy Day.wav

Pre-gap length 0:00:03.50

Peak level 91.6 % Extraction speed 4.6 X Track quality 99.9 % Test CRC 5C126770 Copy CRC 5C126770 Accurately ripped (confidence 6) [F22F48AA] Copy OK

All tracks accurately ripped

No errors occurred

End of status report

==== Log checksum D5EC2C71778EE52C7F79AB7811439908987D676C80CEEFA9DC53AD9F9F6AF4E2 ====
 
REM GENRE JazzREM DATE 1967REM DISCID 4A09C206REM COMMENT "ExactAudioCopy v1.0b1"PERFORMER "Elvin Jones & Richard Davis"TITLE "Heavy Sounds"FILE "01 - Raunchy Rita.wav" WAVE TRACK 01 AUDIO TITLE "Raunchy Rita" PERFORMER "Elvin Jones & Richard Davis" INDEX 01 00:00:00 TRACK 02 AUDIO TITLE "Shiny Stockings" PERFORMER "Elvin Jones & Richard Davis" INDEX 00 11:32:15FILE "02 - Shiny Stockings.wav" WAVE INDEX 01 00:00:00 TRACK 03 AUDIO TITLE "M. E." PERFORMER "Elvin Jones & Richard Davis" INDEX 00 05:10:27FILE "03 - M. E..wav" WAVE INDEX 01 00:00:00 TRACK 04 AUDIO TITLE "Summertime" PERFORMER "Elvin Jones & Richard Davis" INDEX 00 02:37:35FILE "04 - Summertime.wav" WAVE INDEX 01 00:00:00 TRACK 05 AUDIO TITLE "Elvin's Guitar Blues" PERFORMER "Elvin Jones & Richard Davis" INDEX 00 11:34:53FILE "05 - Elvin's Guitar Blues.wav" WAVE INDEX 01 00:00:00 TRACK 06 AUDIO TITLE "Here's That Rainy Day" PERFORMER "Elvin Jones & Richard Davis" INDEX 00 03:25:37FILE "06 - Here's That Rainy Day.wav" WAVE INDEX 01 00:00:00
 
[CUETools log; Date: 12.02.2012 8:17:48; Version: 2.0.9][CTDB TOCID: OgOX6Y91r7JChuFPciVg4i9Kq.0-] disk not present in database.[AccurateRip ID: 000aa8b7-00375b09-4a09c206] found.Track [ CRC ] Status 01 [88d16a86] (06/11) Accurately ripped 02 [2247059e] (06/11) Accurately ripped 03 [384f21f9] (06/11) Accurately ripped 04 [cd095859] (06/11) Accurately ripped 05 [c58ef005] (06/11) Accurately ripped 06 [f22f48aa] (06/11) Accurately ripped

Track Peak [ CRC32 ] [W/O NULL] [ LOG ] -- 96,7 [6DFFA2C5] [EA65CB00] 01 84,4 [A3ACCBCF] [85362F9E] CRC32 02 90,0 [98F06697] [CB39378B] CRC32 03 79,0 [72A07364] [DA621DD5] CRC32 04 96,7 [640B1B6E] [7C936AA8] CRC32 05 76,6 [302AC5FB] [819C524B] CRC32 06 91,6 [5C126770] [AB8458BD] CRC32


Трекер:  [ 12-Фев-2012 16:47 ]

  

Скачать .torrent

Размер .torrent файла 21 KB


Размер: 250 MB
Хэш (hash) релиза: c9e3988c5d96f212c5ba8b7952fc794e5e90ff0a

Торренты, похожие на Elvin Jones And Richard Davis - Heavy Sounds скачать торрент

Форум Название Автор Размер S L Добавлен
Jazz, Blues (lossless) ·· (jazz) Elvin Jones and Richard Davis - Heavy Sounds - 1967, APE (image+.cue), lossless Umakiro 243687360232 MB 0 0 1329054103

16:41

12-Фев-12

Еще никто не оставлял запись к записи скачать торрент Elvin Jones And Richard Davis - Heavy Sounds . Будь первым!

!Обратная связь