Скачать через торрент музыку Lena Horne - Love Songs - 1999, FLAC бесплатно без регистрации torrent

Если у вас наблюдаются проблемы со скриншотами, переходом по ссылками, скачиванием торрентов - проблемы в блокировщике рекламы AdBlock. #хорошегоДня!


Статистика раздачи
Размер:  223 MB   |    Зарегистрирован:  5 лет 8 месяцев   |    .torrent скачан:  40 раз   |   
Раздают:  1  
   
Загрузка...
 
Автор Сообщение

Umakiro

avatar Umakiro


Lena Horne – Love Songs

Жанр: Vocal Jazz
Год издания диска: 1999
Издатель (лейбл): BMG/RCA
Номер по каталогу: 63604
Аудиокодек: FLAC (*.flac)
Тип рипа: tracks+.cue
Битрейт аудио: lossless
Продолжительность: 50:12
Источник:
Сканов

Треклист:
01. It's Love (2:16)
02. Love Me Or Leave Me (3:13)
03. The Man I Love (3:21)
04. You're The One (3:35)
05. People Will Say We're In Love (3:25)
06. Don't Take Your Love From Me (3:09)
07. Love Is The Thing (3:21)
08. Someone To Watch Over Me (3:15)
09. At Long Last Love (2:41)
10. I'm Confessin' (That I Love You) (3:28)
11. Love Me A Little Little (3:05)
12. Let Me Love You (3:19)
13. Mad About The Boy (3:08)
14. I'm Through With Love (3:00)
15. What Is This Thing Called Love? (2:41)
16. You're My Thrill (3:14)

Rec.: January 7, 1941 - July 26, 1961.
 
 
X Lossless Decoder version 20101212 (126.2)

XLD extraction logfile from 2011-02-07 10:32:21 -0500

Various Artists / Love Songs

Used drive : MATSHITA DVD-R UJ-857E (revision ZF1E)

Ripper mode : CDParanoia III 10.2Disable audio cache : OK for the drive with a cache less than 2750KiBMake use of C2 pointers : NORead offset correction : 102Max retry count : 100Gap status : Analyzed, Appended

TOC of the extracted CD Track | Start | Length | Start sector | End sector --------------------------------------------------------- 1 | 00:00:00 | 02:16:20 | 0 | 10219 2 | 02:16:20 | 03:12:65 | 10220 | 24684 3 | 05:29:10 | 03:21:25 | 24685 | 39784 4 | 08:50:35 | 03:35:37 | 39785 | 55946 5 | 12:25:72 | 03:25:35 | 55947 | 71356 6 | 15:51:32 | 03:09:00 | 71357 | 85531 7 | 19:00:32 | 03:20:45 | 85532 | 100576 8 | 22:21:02 | 03:15:13 | 100577 | 115214 9 | 25:36:15 | 02:41:07 | 115215 | 127296 10 | 28:17:22 | 03:27:48 | 127297 | 142869 11 | 31:44:70 | 03:05:00 | 142870 | 156744 12 | 34:49:70 | 03:19:00 | 156745 | 171669 13 | 38:08:70 | 03:08:10 | 171670 | 185779 14 | 41:17:05 | 03:00:05 | 185780 | 199284 15 | 44:17:10 | 02:41:00 | 199285 | 211359 16 | 46:58:10 | 03:13:72 | 211360 | 225906

AccurateRip Summary Disc not found in AccurateRip DB.

All Tracks Album gain : -4.28 dB Peak : 0.955078 Statistics Read error : 0 Skipped (treated as error) : 0 Edge jitter error (maybe fixed) : 0 Atom jitter error (maybe fixed) : 0 Drift error (maybe fixed) : 0 Dropped bytes error (maybe fixed) : 0 Duplicated bytes error (maybe fixed) : 0

Track 01 Filename : /Users/derickmiller/What.CD Torrents/-Converted Files/Compilations - Love Songs (1999) [FLAC] /01 It's Love (From the Musical Production "Wonderful Town") [1990 Remastered].flac Pre-gap length : 00:02:00

Track gain : -4.52 dB Peak : 0.955078 CRC32 hash (test run) : 8E125A52 CRC32 hash : 8E125A52 CRC32 hash (skip zero) : DB2AE008 AccurateRip signature : 6CA5BBB6 ->Track not present in AccurateRip database. Statistics Read error : 0 Skipped (treated as error) : 0 Edge jitter error (maybe fixed) : 0 Atom jitter error (maybe fixed) : 0 Drift error (maybe fixed) : 0 Dropped bytes error (maybe fixed) : 0 Duplicated bytes error (maybe fixed) : 0 Inconsistency in error sectors : 0

Track 02 Filename : /Users/derickmiller/What.CD Torrents/-Converted Files/Compilations - Love Songs (1999) [FLAC] /02 Love Me Or Leave Me.flac Pre-gap length : 00:02:25

Track gain : -3.26 dB Peak : 0.625366 CRC32 hash (test run) : 65C382B6 CRC32 hash : 65C382B6 CRC32 hash (skip zero) : E72DF59D AccurateRip signature : F2D339A2 ->Track not present in AccurateRip database. Statistics Read error : 0 Skipped (treated as error) : 0 Edge jitter error (maybe fixed) : 0 Atom jitter error (maybe fixed) : 0 Drift error (maybe fixed) : 0 Dropped bytes error (maybe fixed) : 0 Duplicated bytes error (maybe fixed) : 0 Inconsistency in error sectors : 0

Track 03 Filename : /Users/derickmiller/What.CD Torrents/-Converted Files/Compilations - Love Songs (1999) [FLAC] /03 The Man I Love.flac Pre-gap length : 00:02:25

Track gain : -5.00 dB Peak : 0.899414 CRC32 hash (test run) : 845D5767 CRC32 hash : 845D5767 CRC32 hash (skip zero) : 1A87CABF AccurateRip signature : BED2B0E2 ->Track not present in AccurateRip database. Statistics Read error : 0 Skipped (treated as error) : 0 Edge jitter error (maybe fixed) : 0 Atom jitter error (maybe fixed) : 0 Drift error (maybe fixed) : 0 Dropped bytes error (maybe fixed) : 0 Duplicated bytes error (maybe fixed) : 0 Inconsistency in error sectors : 0

Track 04 Filename : /Users/derickmiller/What.CD Torrents/-Converted Files/Compilations - Love Songs (1999) [FLAC] /04 You're the One.flac Pre-gap length : 00:02:28

Track gain : -4.34 dB Peak : 0.832855 CRC32 hash (test run) : 78701F85 CRC32 hash : 78701F85 CRC32 hash (skip zero) : 02C55216 AccurateRip signature : CF927C85 ->Track not present in AccurateRip database. Statistics Read error : 0 Skipped (treated as error) : 0 Edge jitter error (maybe fixed) : 0 Atom jitter error (maybe fixed) : 0 Drift error (maybe fixed) : 0 Dropped bytes error (maybe fixed) : 0 Duplicated bytes error (maybe fixed) : 0 Inconsistency in error sectors : 0

Track 05 Filename : /Users/derickmiller/What.CD Torrents/-Converted Files/Compilations - Love Songs (1999) [FLAC] /05 People Will Say We're In Love.flac Pre-gap length : 00:02:25

Track gain : -4.31 dB Peak : 0.759064 CRC32 hash (test run) : C3FD57AD CRC32 hash : C3FD57AD CRC32 hash (skip zero) : 5324A1B4 AccurateRip signature : 7B0D9D56 ->Track not present in AccurateRip database. Statistics Read error : 0 Skipped (treated as error) : 0 Edge jitter error (maybe fixed) : 0 Atom jitter error (maybe fixed) : 0 Drift error (maybe fixed) : 0 Dropped bytes error (maybe fixed) : 0 Duplicated bytes error (maybe fixed) : 0 Inconsistency in error sectors : 0

Track 06 Filename : /Users/derickmiller/What.CD Torrents/-Converted Files/Compilations - Love Songs (1999) [FLAC] /06 Don't Take Your Love From Me.flac Pre-gap length : 00:02:27

Track gain : -4.34 dB Peak : 0.915039 CRC32 hash (test run) : 71A87CC2 CRC32 hash : 71A87CC2 CRC32 hash (skip zero) : 8201A268 AccurateRip signature : 409E5775 ->Track not present in AccurateRip database. Statistics Read error : 0 Skipped (treated as error) : 0 Edge jitter error (maybe fixed) : 0 Atom jitter error (maybe fixed) : 0 Drift error (maybe fixed) : 0 Dropped bytes error (maybe fixed) : 0 Duplicated bytes error (maybe fixed) : 0 Inconsistency in error sectors : 0

Track 07 Filename : /Users/derickmiller/What.CD Torrents/-Converted Files/Compilations - Love Songs (1999) [FLAC] /07 Love Is The Thing.flac Pre-gap length : 00:02:25

Track gain : -4.33 dB Peak : 0.889282 CRC32 hash (test run) : 0ADD4F36 CRC32 hash : 0ADD4F36 CRC32 hash (skip zero) : 9A20F6A3 AccurateRip signature : C331A4E2 ->Track not present in AccurateRip database. Statistics Read error : 0 Skipped (treated as error) : 0 Edge jitter error (maybe fixed) : 0 Atom jitter error (maybe fixed) : 0 Drift error (maybe fixed) : 0 Dropped bytes error (maybe fixed) : 0 Duplicated bytes error (maybe fixed) : 0 Inconsistency in error sectors : 0

Track 08 Filename : /Users/derickmiller/What.CD Torrents/-Converted Files/Compilations - Love Songs (1999) [FLAC] /08 Someone to Watch Over Me.flac Pre-gap length : 00:02:27

Track gain : -2.86 dB Peak : 0.942566 CRC32 hash (test run) : 4A013884 CRC32 hash : 4A013884 CRC32 hash (skip zero) : B7F4DAB8 AccurateRip signature : D8A353B0 ->Track not present in AccurateRip database. Statistics Read error : 0 Skipped (treated as error) : 0 Edge jitter error (maybe fixed) : 0 Atom jitter error (maybe fixed) : 0 Drift error (maybe fixed) : 0 Dropped bytes error (maybe fixed) : 0 Duplicated bytes error (maybe fixed) : 0 Inconsistency in error sectors : 0

Track 09 Filename : /Users/derickmiller/What.CD Torrents/-Converted Files/Compilations - Love Songs (1999) [FLAC] /09 At Long Last Love.flac Pre-gap length : 00:02:25

Track gain : -5.29 dB Peak : 0.857391 CRC32 hash (test run) : C0744264 CRC32 hash : C0744264 CRC32 hash (skip zero) : C913BE5B AccurateRip signature : 522F21DD ->Track not present in AccurateRip database. Statistics Read error : 0 Skipped (treated as error) : 0 Edge jitter error (maybe fixed) : 0 Atom jitter error (maybe fixed) : 0 Drift error (maybe fixed) : 0 Dropped bytes error (maybe fixed) : 0 Duplicated bytes error (maybe fixed) : 0 Inconsistency in error sectors : 0

Track 10 Filename : /Users/derickmiller/What.CD Torrents/-Converted Files/Compilations - Love Songs (1999) [FLAC] /10 I'm Confessin' (That I Love You).flac Pre-gap length : 00:02:25

Track gain : -3.02 dB Peak : 0.951172 CRC32 hash (test run) : 7F932CA4 CRC32 hash : 7F932CA4 CRC32 hash (skip zero) : 6837AF6E AccurateRip signature : 0B34C1B4 ->Track not present in AccurateRip database. Statistics Read error : 0 Skipped (treated as error) : 0 Edge jitter error (maybe fixed) : 0 Atom jitter error (maybe fixed) : 0 Drift error (maybe fixed) : 0 Dropped bytes error (maybe fixed) : 0 Duplicated bytes error (maybe fixed) : 0 Inconsistency in error sectors : 0

Track 11 Filename : /Users/derickmiller/What.CD Torrents/-Converted Files/Compilations - Love Songs (1999) [FLAC] /11 Love Me A Little Little.flac Pre-gap length : 00:02:28

Track gain : -5.47 dB Peak : 0.938599 CRC32 hash (test run) : 11715D5D CRC32 hash : 11715D5D CRC32 hash (skip zero) : A588A2EF AccurateRip signature : 7873B15D ->Track not present in AccurateRip database. Statistics Read error : 0 Skipped (treated as error) : 0 Edge jitter error (maybe fixed) : 0 Atom jitter error (maybe fixed) : 0 Drift error (maybe fixed) : 0 Dropped bytes error (maybe fixed) : 0 Duplicated bytes error (maybe fixed) : 0 Inconsistency in error sectors : 0

Track 12 Filename : /Users/derickmiller/What.CD Torrents/-Converted Files/Compilations - Love Songs (1999) [FLAC] /12 Let Me Love You.flac Pre-gap length : 00:02:28

Track gain : -3.12 dB Peak : 0.832489 CRC32 hash (test run) : 966126C5 CRC32 hash : 966126C5 CRC32 hash (skip zero) : A7F14155 AccurateRip signature : 82D52E34 ->Track not present in AccurateRip database. Statistics Read error : 0 Skipped (treated as error) : 0 Edge jitter error (maybe fixed) : 0 Atom jitter error (maybe fixed) : 0 Drift error (maybe fixed) : 0 Dropped bytes error (maybe fixed) : 0 Duplicated bytes error (maybe fixed) : 0 Inconsistency in error sectors : 0

Track 13 Filename : /Users/derickmiller/What.CD Torrents/-Converted Files/Compilations - Love Songs (1999) [FLAC] /13 Mad About The Boy.flac Pre-gap length : 00:02:28

Track gain : -3.71 dB Peak : 0.675934 CRC32 hash (test run) : 66EFED4C CRC32 hash : 66EFED4C CRC32 hash (skip zero) : 8562A5A5 AccurateRip signature : B6B04A10 ->Track not present in AccurateRip database. Statistics Read error : 0 Skipped (treated as error) : 0 Edge jitter error (maybe fixed) : 0 Atom jitter error (maybe fixed) : 0 Drift error (maybe fixed) : 0 Dropped bytes error (maybe fixed) : 0 Duplicated bytes error (maybe fixed) : 0 Inconsistency in error sectors : 0

Track 14 Filename : /Users/derickmiller/What.CD Torrents/-Converted Files/Compilations - Love Songs (1999) [FLAC] /14 I'm Through With Love.flac Pre-gap length : 00:02:25

Track gain : -2.62 dB Peak : 0.954956 CRC32 hash (test run) : 676993A7 CRC32 hash : 676993A7 CRC32 hash (skip zero) : 1230E998 AccurateRip signature : EF99BE18 ->Track not present in AccurateRip database. Statistics Read error : 0 Skipped (treated as error) : 0 Edge jitter error (maybe fixed) : 0 Atom jitter error (maybe fixed) : 0 Drift error (maybe fixed) : 0 Dropped bytes error (maybe fixed) : 0 Duplicated bytes error (maybe fixed) : 0 Inconsistency in error sectors : 0

Track 15 Filename : /Users/derickmiller/What.CD Torrents/-Converted Files/Compilations - Love Songs (1999) [FLAC] /15 What Is This Thing Called Love?.flac Pre-gap length : 00:02:03

Track gain : -3.86 dB Peak : 0.712097 CRC32 hash (test run) : 620F26E1 CRC32 hash : 620F26E1 CRC32 hash (skip zero) : 8B9C0279 AccurateRip signature : DE0D6926 ->Track not present in AccurateRip database. Statistics Read error : 0 Skipped (treated as error) : 0 Edge jitter error (maybe fixed) : 0 Atom jitter error (maybe fixed) : 0 Drift error (maybe fixed) : 0 Dropped bytes error (maybe fixed) : 0 Duplicated bytes error (maybe fixed) : 0 Inconsistency in error sectors : 0

Track 16 Filename : /Users/derickmiller/What.CD Torrents/-Converted Files/Compilations - Love Songs (1999) [FLAC] /16 You're My Thrill.flac Pre-gap length : 00:02:28

Track gain : -6.23 dB Peak : 0.888062 CRC32 hash (test run) : A149E292 CRC32 hash : A149E292 CRC32 hash (skip zero) : 6711026E AccurateRip signature : 96E853BD ->Track not present in AccurateRip database. Statistics Read error : 0 Skipped (treated as error) : 0 Edge jitter error (maybe fixed) : 0 Atom jitter error (maybe fixed) : 0 Drift error (maybe fixed) : 0 Dropped bytes error (maybe fixed) : 0 Duplicated bytes error (maybe fixed) : 0 Inconsistency in error sectors : 0

No errors occurred

End of status report
 
PERFORMER "Lena Horne"TITLE "Love Songs"REM GENRE "Easy Listening"REM DATE 1999REM DISCID E00BC410FILE "01. It's Love.flac" WAVE TRACK 01 AUDIO TITLE "It's Love" PERFORMER "Lena Horne" SONGWRITER "Leonard Bernstein" ISRC USBB15500765 INDEX 01 00:00:00 TRACK 02 AUDIO TITLE "Love Me Or Leave Me" PERFORMER "Lena Horne" SONGWRITER "Walter Donaldson" ISRC USBB15500683 INDEX 00 02:13:70FILE "02. Love Me Or Leave Me.flac" WAVE INDEX 01 00:00:00 TRACK 03 AUDIO TITLE "The Man I Love" PERFORMER "Lena Horne" SONGWRITER "George Gershwin" ISRC USBB14101056 INDEX 00 03:10:40FILE "03. The Man I Love.flac" WAVE INDEX 01 00:00:00 TRACK 04 AUDIO TITLE "You're The One" PERFORMER "Lena Horne" SONGWRITER "William Strayhorn" ISRC USRC15501139 INDEX 00 03:18:72FILE "04. You're The One.flac" WAVE INDEX 01 00:00:00 TRACK 05 AUDIO TITLE "People Will Say We're In Love" PERFORMER "Lena Horne" SONGWRITER "Richard Rodgers" ISRC USBB15800969 INDEX 00 03:33:12FILE "05. People Will Say We're In Love.flac" WAVE INDEX 01 00:00:00 TRACK 06 AUDIO TITLE "Don't Take Your Love From Me" PERFORMER "Lena Horne" SONGWRITER "Henry Nemo" ISRC USBB14101003 INDEX 00 03:23:08FILE "06. Don't Take Your Love From Me.flac" WAVE INDEX 01 00:00:00 TRACK 07 AUDIO TITLE "Love Is The Thing" PERFORMER "Lena Horne" SONGWRITER "Victor Young" ISRC USRC15501136 INDEX 00 03:06:50FILE "07. Love Is The Thing.flac" WAVE INDEX 01 00:00:00 TRACK 08 AUDIO TITLE "Someone To Watch Over Me" PERFORMER "Lena Horne" SONGWRITER "George Gershwin" ISRC USRC16101143 INDEX 00 03:18:18FILE "08. Someone To Watch Over Me.flac" WAVE INDEX 01 00:00:00 TRACK 09 AUDIO TITLE "At Long Last Love" PERFORMER "Lena Horne" SONGWRITER "Cole Porter" ISRC USBB15800962 INDEX 00 03:12:63FILE "09. At Long Last Love.flac" WAVE INDEX 01 00:00:00 TRACK 10 AUDIO TITLE "I'm Confessin' (That I Love You)" PERFORMER "Lena Horne" SONGWRITER "Ellis Reynolds/Doc Daugherty" ISRC USBB16200732 INDEX 00 02:38:57FILE "10. I'm Confessin' (That I Love You).flac" WAVE INDEX 01 00:00:00 TRACK 11 AUDIO TITLE "Love Me A Little Little" PERFORMER "Lena Horne" SONGWRITER "Ellen Orr/Herbie Holmes/Howard Smith" ISRC USBB14101054 INDEX 00 03:25:20FILE "11. Love Me A Little Little.flac" WAVE INDEX 01 00:00:00 TRACK 12 AUDIO TITLE "Let Me Love You" PERFORMER "Lena Horne" SONGWRITER "Bart Howard" ISRC USBB15501002 INDEX 00 03:02:47FILE "12. Let Me Love You.flac" WAVE INDEX 01 00:00:00 TRACK 13 AUDIO TITLE "Mad About The Boy" PERFORMER "Lena Horne" SONGWRITER "Noel Coward" ISRC USBB15601019 INDEX 00 03:16:47FILE "13. Mad About The Boy.flac" WAVE INDEX 01 00:00:00 TRACK 14 AUDIO TITLE "I'm Through With Love" PERFORMER "Lena Horne" SONGWRITER "Jay Livingston/Matt Malneck" ISRC USRC16101142 INDEX 00 03:05:60FILE "14. I'm Through With Love.flac" WAVE INDEX 01 00:00:00 TRACK 15 AUDIO TITLE "What Is This Thing Called Love?" PERFORMER "Lena Horne" SONGWRITER "Cole Porter" ISRC USBB14101055 INDEX 00 02:58:02FILE "15. What Is This Thing Called Love.flac" WAVE INDEX 01 00:00:00 TRACK 16 AUDIO TITLE "You're My Thrill" PERFORMER "Lena Horne" SONGWRITER "Jay Gorney" ISRC USBB14100736 INDEX 00 02:38:47FILE "16. You're My Thrill.flac" WAVE INDEX 01 00:00:00
 
[CUETools log; Date: 12.02.2012 11:54:32; Version: 2.0.9][CTDB TOCID: J4vWUmmAQ0JSAILWrLUfrlYTO_Y-] disk not present in database.[AccurateRip ID: 001d5c88-01619118-e00bc410] found.Track [ CRC ] Status 01 [6ca5bbb6] (2/2) Accurately ripped 02 [f2d339a2] (2/2) Accurately ripped 03 [bed2b0e2] (2/2) Accurately ripped 04 [cf927c85] (2/2) Accurately ripped 05 [7b0d9d56] (2/2) Accurately ripped 06 [409e5775] (2/2) Accurately ripped 07 [c331a4e2] (2/2) Accurately ripped 08 [d8a353b0] (2/2) Accurately ripped 09 [522f21dd] (2/2) Accurately ripped 10 [0b34c1b4] (2/2) Accurately ripped 11 [7873b15d] (2/2) Accurately ripped 12 [82d52e34] (2/2) Accurately ripped 13 [b6b04a10] (2/2) Accurately ripped 14 [ef99be18] (2/2) Accurately ripped 15 [de0d6926] (2/2) Accurately ripped 16 [96e853bd] (2/2) Accurately ripped

Track Peak [ CRC32 ] [W/O NULL] -- 95,5 [FB9FDF54] [4BF33301] 01 95,5 [8E125A52] [DB2AE008] 02 62,5 [65C382B6] [E72DF59D] 03 89,9 [845D5767] [1A87CABF] 04 83,2 [78701F85] [02C55216] 05 75,9 [C3FD57AD] [5324A1B4] 06 91,5 [71A87CC2] [8201A268] 07 88,9 [0ADD4F36] [9A20F6A3] 08 94,2 [4A013884] [B7F4DAB8] 09 85,7 [C0744264] [C913BE5B] 10 95,1 [7F932CA4] [6837AF6E] 11 93,8 [11715D5D] [A588A2EF] 12 83,2 [966126C5] [A7F14155] 13 67,5 [66EFED4C] [8562A5A5] 14 95,4 [676993A7] [1230E998] 15 71,2 [620F26E1] [8B9C0279] 16 88,8 [A149E292] [6711026E]


Трекер:  [ 12-Фев-2012 16:47 ]

  

Скачать .torrent

Размер .torrent файла 19 KB


Размер: 223 MB
Хэш (hash) релиза: c8cacc891792d347310f590d64e185bdb22ef2c7

Еще никто не оставлял запись к записи скачать торрент Lena Horne - Love Songs - 1999, FLAC . Будь первым!

!Обратная связь