Скачать через торрент музыку Lena Horne - Merry From Lena бесплатно без регистрации torrent

Если у вас наблюдаются проблемы со скриншотами, переходом по ссылками, скачиванием торрентов - проблемы в блокировщике рекламы AdBlock. #хорошегоДня!


Статистика раздачи
Размер:  160 MB   |    Зарегистрирован:  5 лет 8 месяцев   |    .torrent скачан:  24 раза   |   
Раздают:  1  
   
Загрузка...
 
Автор Сообщение

Umakiro

avatar Umakiro


Lena Horne – Merry From Lena (1966)

Жанр: Vocal Jazz, Christmas
Год издания диска: 1995
Издатель (лейбл): Razor & Tie Music
Номер по каталогу: 2087
Аудиокодек: FLAC (*.flac)
Тип рипа: tracks+.cue
Битрейт аудио: lossless
Продолжительность: 31:56
Источник:
Наличие сканов в содержимом раздачи: да

Треклист:
01. Jingle All The Way (2:36)
02. The Christmas Song (3:19)
03. Winter Wonderland (2:11)
04. White Christmas (3:23)
05. Let It Snow! Let it Snow! Let it Snow! (2:27)
06. Little Drummer Boy (3:15)
07. Rudolph The Red-Nosed Reindeer (2:41)
08. What Are You Doing New Year's Eve (3:39)
09. Have Yourself A Merry Little Christmas (2:41)
10. Silent Night (3:00)
Bonus track:
11. Santa Claus Is Coming To Town (2:42)
 
 
Exact Audio Copy V0.99 prebeta 4 from 23. January 2008

EAC extraction logfile from 20. December 2009, 0:07

Lena Horne / Merry From Lena

Used drive : TSSTcorpCD/DVDW TS-H552L Adapter: 5 ID: 0

Read mode : SecureUtilize accurate stream : YesDefeat audio cache : YesMake use of C2 pointers : No

Read offset correction : 6Overread into Lead-In and Lead-Out : NoFill up missing offset samples with silence : YesDelete leading and trailing silent blocks : NoNull samples used in CRC calculations : YesUsed interface : Native Win32 interface for Win NT & 2000Gap handling : Appended to previous track

Used output format : User Defined EncoderSelected bitrate : 128 kBit/sQuality : HighAdd ID3 tag : NoCommand line compressor : C:\Program Files\Exact Audio Copy\Flac\flac.exeAdditional command line options : -8 -V -T "ARTIST=%a" -T "TITLE=%t" -T "ALBUM=%g" -T "DATE=%y" -T "TRACKNUMBER=%n" -T "GENRE=%m" -T "COMMENT=EAC FLAC -8" %s

TOC of the extracted CD

Track | Start | Length | Start sector | End sector --------------------------------------------------------- 1 | 0:00.00 | 2:36.25 | 0 | 11724 2 | 2:36.25 | 3:19.10 | 11725 | 26659 3 | 5:55.35 | 2:11.35 | 26660 | 36519 4 | 8:06.70 | 3:23.37 | 36520 | 51781 5 | 11:30.32 | 2:26.73 | 51782 | 62804 6 | 13:57.30 | 3:15.32 | 62805 | 77461 7 | 17:12.62 | 2:40.65 | 77462 | 89526 8 | 19:53.52 | 3:39.00 | 89527 | 105951 9 | 23:32.52 | 2:41.08 | 105952 | 118034 10 | 26:13.60 | 2:59.65 | 118035 | 131524 11 | 29:13.50 | 2:42.25 | 131525 | 143699

Track 1

Filename C:\RIP\01 - Jingle All The Way.wav

Pre-gap length 0:00:02.00

Peak level 100.0 % Track quality 100.0 % Test CRC FDAC666E Copy CRC FDAC666E Accurately ripped (confidence 1) [E0D1FFF3] Copy OK

Track 2

Filename C:\RIP\02 - The Christmas Song.wav

Pre-gap length 0:00:01.80

Peak level 70.1 % Track quality 100.0 % Test CRC B0F3933F Copy CRC B0F3933F Accurately ripped (confidence 1) [3A981ECB] Copy OK

Track 3

Filename C:\RIP\03 - Winter Wonderland.wav

Pre-gap length 0:00:01.57

Peak level 100.0 % Track quality 100.0 % Test CRC 0AA62C86 Copy CRC 0AA62C86 Accurately ripped (confidence 1) [1DC03871] Copy OK

Track 4

Filename C:\RIP\04 - White Christmas.wav

Pre-gap length 0:00:01.80

Peak level 89.5 % Track quality 100.0 % Test CRC 13D2714D Copy CRC 13D2714D Accurately ripped (confidence 1) [6FE49463] Copy OK

Track 5

Filename C:\RIP\05 - Let It Snow! Let it Snow! Let it Snow!.wav

Pre-gap length 0:00:01.69

Peak level 100.0 % Track quality 100.0 % Test CRC 468402B7 Copy CRC 468402B7 Accurately ripped (confidence 1) [433061B2] Copy OK

Track 6

Filename C:\RIP\06 - Little Drummer Boy.wav

Pre-gap length 0:00:02.17

Peak level 73.3 % Track quality 100.0 % Test CRC 878C8A2A Copy CRC 878C8A2A Accurately ripped (confidence 1) [26E096C0] Copy OK

Track 7

Filename C:\RIP\07 - What Are You Doing New Year's Eve.wav

Pre-gap length 0:00:01.82

Peak level 100.0 % Track quality 100.0 % Test CRC B04905A7 Copy CRC B04905A7 Accurately ripped (confidence 1) [A9A7B096] Copy OK

Track 8

Filename C:\RIP\08 - What Are You Doing New Year's Eve.wav

Pre-gap length 0:00:01.60

Peak level 100.0 % Track quality 100.0 % Test CRC DC2DE916 Copy CRC DC2DE916 Accurately ripped (confidence 1) [E5D1CFFF] Copy OK

Track 9

Filename C:\RIP\09 - Have Yourself A Merry Little Christmas.wav

Pre-gap length 0:00:01.80

Peak level 95.2 % Track quality 100.0 % Test CRC 011F2348 Copy CRC 011F2348 Accurately ripped (confidence 1) [07AEB7FE] Copy OK

Track 10

Filename C:\RIP\10 - Silent Night.wav

Pre-gap length 0:00:01.73

Peak level 100.0 % Track quality 100.0 % Test CRC 1DFF5F7A Copy CRC 1DFF5F7A Accurately ripped (confidence 1) [F3B4D770] Copy OK

Track 11

Filename C:\RIP\11 - Santa Claus Is Coming To Town.wav

Pre-gap length 0:00:04.17

Peak level 100.0 % Track quality 100.0 % Test CRC 00E88683 Copy CRC 00E88683 Accurately ripped (confidence 1) [0756A1C3] Copy OK

All tracks accurately ripped

No errors occurred

End of status report
 
REM GENRE JazzREM DATE 1966REM DISCID 9E077C0BREM COMMENT "ExactAudioCopy v0.99pb4"PERFORMER "Lena Horne"TITLE "Merry From Lena"FILE "01. Jingle All The Way.flac" WAVE TRACK 01 AUDIO TITLE "Jingle All The Way" PERFORMER "Lena Horne" INDEX 01 00:00:00 TRACK 02 AUDIO TITLE "The Christmas Song" PERFORMER "Lena Horne" INDEX 00 02:34:40FILE "02. The Christmas Song.flac" WAVE INDEX 01 00:00:00 TRACK 03 AUDIO TITLE "Winter Wonderland" PERFORMER "Lena Horne" INDEX 00 03:17:42FILE "03. Winter Wonderland.flac" WAVE INDEX 01 00:00:00 TRACK 04 AUDIO TITLE "White Christmas" PERFORMER "Lena Horne" INDEX 00 02:09:50FILE "04. White Christmas.flac" WAVE INDEX 01 00:00:00 TRACK 05 AUDIO TITLE "Let It Snow! Let it Snow! Let it Snow!" PERFORMER "Lena Horne" INDEX 00 03:21:60FILE "05. Let It Snow! Let it Snow! Let it Snow!.flac" WAVE INDEX 01 00:00:00 TRACK 06 AUDIO TITLE "Little Drummer Boy" PERFORMER "Lena Horne" INDEX 00 02:24:60FILE "06. Little Drummer Boy.flac" WAVE INDEX 01 00:00:00 TRACK 07 AUDIO TITLE "Rudolph The Red-Nosed Reindeer" PERFORMER "Lena Horne" INDEX 00 03:13:45FILE "07. Rudolph The Red-Nosed Reindeer.flac" WAVE INDEX 01 00:00:00 TRACK 08 AUDIO TITLE "What Are You Doing New Year's Eve" PERFORMER "Lena Horne" INDEX 00 02:39:20FILE "08. What Are You Doing New Year's Eve.flac" WAVE INDEX 01 00:00:00 TRACK 09 AUDIO TITLE "Have Yourself A Merry Little Christmas" PERFORMER "Lena Horne" INDEX 00 03:37:15FILE "09. Have Yourself A Merry Little Christmas.flac" WAVE INDEX 01 00:00:00 TRACK 10 AUDIO TITLE "Silent Night" PERFORMER "Lena Horne" INDEX 00 02:39:28FILE "10. Silent Night.flac" WAVE INDEX 01 00:00:00 TRACK 11 AUDIO TITLE "Santa Claus Is Coming To Town" PERFORMER "Lena Horne" INDEX 00 02:55:52FILE "11. Santa Claus Is Coming To Town.flac" WAVE INDEX 01 00:00:00
 
[CUETools log; Date: 12.02.2012 14:45:52; Version: 2.0.9][CTDB TOCID: 5Fg0E6_AcPvfZWDVDkybH_.s.XI-] disk not present in database.[AccurateRip ID: 000d0e8d-0071a8da-9e077c0b] found.Track [ CRC ] Status 01 [e0d1fff3] (2/2) Accurately ripped 02 [3a981ecb] (2/2) Accurately ripped 03 [1dc03871] (2/2) Accurately ripped 04 [6fe49463] (2/2) Accurately ripped 05 [433061b2] (2/2) Accurately ripped 06 [26e096c0] (2/2) Accurately ripped 07 [a9a7b096] (2/2) Accurately ripped 08 [e5d1cfff] (2/2) Accurately ripped 09 [07aeb7fe] (2/2) Accurately ripped 10 [f3b4d770] (2/2) Accurately ripped 11 [0756a1c3] (2/2) Accurately ripped

Track Peak [ CRC32 ] [W/O NULL] [ LOG ] -- 100,0 [FFEB8A55] [02CAF4A7] 01 100,0 [FDAC666E] [BAFB4D0E] CRC32 02 70,0 [B0F3933F] [EF7487B2] CRC32 03 100,0 [0AA62C86] [F5B08649] CRC32 04 89,5 [13D2714D] [D724195E] CRC32 05 100,0 [468402B7] [11E7C5CB] CRC32 06 73,3 [878C8A2A] [A980BFE4] CRC32 07 100,0 [B04905A7] [CC6ADF80] CRC32 08 100,0 [DC2DE916] [2BFBABF3] CRC32 09 95,2 [011F2348] [B00E18CC] CRC32 10 100,0 [1DFF5F7A] [3E4122BB] CRC32 11 100,0 [00E88683] [3A368203] CRC32


Трекер:  [ 12-Фев-2012 16:46 ]

  

Скачать .torrent

Размер .torrent файла 14 KB


Размер: 160 MB
Хэш (hash) релиза: 967e285de8065bf928515d6261074dc721c74f46

Еще никто не оставлял запись к записи скачать торрент Lena Horne - Merry From Lena . Будь первым!

!Обратная связь