Скачать через торрент музыку Scott LaFaro - Pieces Of Jade бесплатно без регистрации torrent

Если у вас наблюдаются проблемы со скриншотами, переходом по ссылками, скачиванием торрентов - проблемы в блокировщике рекламы AdBlock. #хорошегоДня!


Статистика раздачи
Размер:  322 MB   |    Зарегистрирован:  5 лет 8 месяцев   |    .torrent скачан:  28 раз   |   
Раздают:  1  
   
Загрузка...
 
Автор Сообщение

Umakiro

avatar Umakiro


Scott LaFaro - Pieces Of Jade (1961)

Жанр: Bop, Post-Bop
Страна-производитель диска: U.S.A.
Год издания диска: 2009
Издатель (лейбл): Resonance Records
Номер по каталогу: HCD-2005
Аудиокодек: FLAC (*.flac)
Тип рипа: tracks+.cue
Битрейт аудио: lossless
Продолжительность: 01:13:46
Источник (релизер): ruskaval
Наличие сканов в содержимом раздачи: да

Треклист:

01. I Hear A Rhapsody
02. Sacre Bleu
03. Green Dolphin Street
04. Sacre Bleu (alt)
05. Woody'n You
06. My Foolish Heart (Rehearsal Tape Bill Evans & Scott LaFaro 1960)
07. Interview With Bill Evans by George Klabin 1966
08. Memories For Scotty
 
EAC extraction logfile from 17. December 2009, 0:42 for CDScott LaFaro / Pieces of Jade

Used drive : HP DVD Writer 1170d Adapter: 2 ID: 0Read mode : Secure with NO C2, accurate stream, disable cacheRead offset correction : 6Overread into Lead-In and Lead-Out : No

Used output format : C:\Eac\Codecs\flac.exe (User Defined Encoder) 320 kBit/s Additional command line options : -8 -V -T "artist=%a" -T "title=%t" -T "album=%g" -T "date=%y" -T "tracknumber=%n" -T "genre=%m" -T "comment=EAC Flac 1.1.2 -8" %s

Other options : Fill up missing offset samples with silence : Yes Delete leading and trailing silent blocks : No Installed external ASPI interface

Track 1 Filename C:\Documents and Settings\lafaro\01 - I Hear A Rhapsody.wav

Pre-gap length 0:00:02.00

Peak level 100.0 % Track quality 100.0 % Test CRC AD129E82 Copy CRC AD129E82 Copy OK

Track 2 Filename C:\Documents and Settings\lafaro\02 - Sacre Bleu.wav

Peak level 99.3 % Track quality 100.0 % Test CRC E706A0A8 Copy CRC E706A0A8 Copy OK

Track 3 Filename C:\Documents and Settings\lafaro\03 - Green Dolphin St.wav

Peak level 92.4 % Track quality 100.0 % Test CRC E6FF96FC Copy CRC E6FF96FC Copy OK

Track 4 Filename C:\Documents and Settings\lafaro\04 - Sacre Bleu.wav

Peak level 97.6 % Track quality 100.0 % Test CRC 39FD413F Copy CRC 39FD413F Copy OK

Track 5 Filename C:\Documents and Settings\lafaro\05 - Woody 'n You.wav

Peak level 100.0 % Track quality 99.9 % Test CRC DCFFA00D Copy CRC DCFFA00D Copy OK

Track 6 Filename C:\Documents and Settings\lafaro\06 - My Foolish Heart.wav

Peak level 88.1 % Track quality 100.0 % Test CRC F8D3D58B Copy CRC F8D3D58B Copy OK

Track 7 Filename C:\Documents and Settings\lafaro\07 - Interview with Bill Evans by George Klabin 1966.wav

Peak level 100.0 % Track quality 100.0 % Test CRC EF9B6EBA Copy CRC EF9B6EBA Copy OK

Track 8 Filename C:\Documents and Settings\lafaro\08 - Memories for Scotty.wav

Peak level 100.0 % Track quality 100.0 % Test CRC B6CD763B Copy CRC B6CD763B Copy OK

No errors occured

End of status report
 
REM GENRE JazzREM DATE 2009REM DISCID 64114A08REM COMMENT "ExactAudioCopy v0.95b4"PERFORMER "Scott LaFaro"TITLE "Pieces of Jade"FILE "01 - I Hear A Rhapsody.wav" WAVE TRACK 01 AUDIO TITLE "I Hear A Rhapsody" PERFORMER "Scott LaFaro" INDEX 01 00:00:00FILE "02 - Sacre Bleu.wav" WAVE TRACK 02 AUDIO TITLE "Sacre Bleu" PERFORMER "Scott LaFaro" INDEX 01 00:00:00FILE "03 - Green Dolphin St.wav" WAVE TRACK 03 AUDIO TITLE "Green Dolphin St" PERFORMER "Scott LaFaro" INDEX 01 00:00:00FILE "04 - Sacre Bleu.wav" WAVE TRACK 04 AUDIO TITLE "Sacre Bleu" PERFORMER "Scott LaFaro" INDEX 01 00:00:00FILE "05 - Woody 'n You.wav" WAVE TRACK 05 AUDIO TITLE "Woody 'n You" PERFORMER "Scott LaFaro" INDEX 01 00:00:00FILE "06 - My Foolish Heart.wav" WAVE TRACK 06 AUDIO TITLE "My Foolish Heart" PERFORMER "Scott LaFaro" INDEX 01 00:00:00FILE "07 - Interview with Bill Evans by George Klabin 1966.wav" WAVE TRACK 07 AUDIO TITLE "Interview with Bill Evans by George Klabin 1966" PERFORMER "Scott LaFaro" INDEX 01 00:00:00FILE "08 - Memories for Scotty.wav" WAVE TRACK 08 AUDIO TITLE "Memories for Scotty" PERFORMER "Scott LaFaro" INDEX 01 00:00:00


Трекер:  [ 12-Фев-2012 16:45 ]

  

Скачать .torrent

Размер .torrent файла 14 KB


Размер: 322 MB
Хэш (hash) релиза: 3b103c2c01d5213f724f4b174ae17df148099190

Еще никто не оставлял запись к записи скачать торрент Scott LaFaro - Pieces Of Jade . Будь первым!

!Обратная связь