Скачать через торрент музыку Herb Ellis & Joe Pass — Two For The Road — 1974, FLAC бесплатно без регистрации torrent

Если у вас наблюдаются проблемы со скриншотами, переходом по ссылками, скачиванием торрентов - проблемы в блокировщике рекламы AdBlock. #хорошегоДня!


Статистика раздачи
Размер:  197 MB   |    Зарегистрирован:  5 лет 8 месяцев   |    .torrent скачан:  28 раз   |   
Раздают:  1  
   
Загрузка...
 
Автор Сообщение

Umakiro

avatar Umakiro


Herb Ellis & Joe Pass — Two For The Road

Жанр: Bop
Год выпуска диска: 1974
Label: Pablo
Аудио кодек: FLAC
Тип рипа: image+.cue
Битрейт аудио: lossless
Продолжительность: 45:08

Трeклист:
01. Love For Sale (4:52)
02. Carnival (Manha De Carnaval) (3:32)
03. Am I Blue? (3:10)
04. Seven Come Eleven (4:34)
05. Guitar Blues (2:51)
06. Lady Be Good (3:59)
07. Cherokee (Concept I) (2:51)
08. Cherokee (Concept II) (4:09)
09. Seulb (3:26)
10. Gee, Baby Ain't I Good To You (2:29)
11. Try A Little Tenderness (2:19)
12. I've Found A New Baby (4:03)
13. Angel Eyes (2:53)
 
Exact Audio Copy V0.99 prebeta 4 from 23. January 2008

EAC extraction logfile from 20. August 2009, 18:55

Herb Ellis & Joe Pass / Two For The Road

Used drive : Optiarc DVD RW AD-7173A Adapter: 1 ID: 0

Read mode : SecureUtilize accurate stream : YesDefeat audio cache : YesMake use of C2 pointers : No

Read offset correction : 48Overread into Lead-In and Lead-Out : NoFill up missing offset samples with silence : YesDelete leading and trailing silent blocks : NoNull samples used in CRC calculations : NoUsed interface : Native Win32 interface for Win NT & 2000

Used output format : Internal WAV RoutinesSample format : 44.100 Hz; 16 Bit; Stereo

TOC of the extracted CD

Track | Start | Length | Start sector | End sector --------------------------------------------------------- 1 | 0:00.00 | 4:52.36 | 0 | 21935 2 | 4:52.36 | 3:32.00 | 21936 | 37835 3 | 8:24.36 | 3:10.00 | 37836 | 52085 4 | 11:34.36 | 4:34.00 | 52086 | 72635 5 | 16:08.36 | 2:50.64 | 72636 | 85449 6 | 18:59.25 | 3:59.36 | 85450 | 103410 7 | 22:58.61 | 2:50.50 | 103411 | 116210 8 | 25:49.36 | 4:09.00 | 116211 | 134885 9 | 29:58.36 | 3:26.13 | 134886 | 150348 10 | 33:24.49 | 2:28.51 | 150349 | 161499 11 | 35:53.25 | 2:19.36 | 161500 | 171960 12 | 38:12.61 | 4:02.39 | 171961 | 190149 13 | 42:15.25 | 2:53.00 | 190150 | 203124

Range status and errors

Selected range

Filename G:\AVAXHOME\Herb Ellis & Joe Pass - Two For The Road (1974)\Herb Ellis & Joe Pass - Two For The Road.wav

Peak level 74.9 % Range quality 99.9 % Copy CRC E1444724 Copy OK

No errors occurred

AccurateRip summary

Track 1 not present in databaseTrack 2 not present in databaseTrack 3 not present in databaseTrack 4 not present in databaseTrack 5 not present in databaseTrack 6 not present in databaseTrack 7 not present in databaseTrack 8 not present in databaseTrack 9 not present in databaseTrack 10 not present in databaseTrack 11 not present in databaseTrack 12 not present in databaseTrack 13 not present in database

None of the tracks are present in the AccurateRip database

End of status report
  

Трекер:  [ 12-Фев-2012 16:45 ]

  

Скачать .torrent

Размер .torrent файла 5 KB


Размер: 197 MB
Хэш (hash) релиза: df0efa5cdda11339f075c0cd0e6b00f68c092c1e

Еще никто не оставлял запись к записи скачать торрент Herb Ellis & Joe Pass — Two For The Road — 1974, FLAC . Будь первым!

!Обратная связь