Скачать через торрент музыку Dexter Gordon - CaPurange - 1999, FLAC бесплатно без регистрации torrent

Если у вас наблюдаются проблемы со скриншотами, переходом по ссылками, скачиванием торрентов - проблемы в блокировщике рекламы AdBlock. #хорошегоДня!


Статистика раздачи
Размер:  246 MB   |    Зарегистрирован:  5 лет 8 месяцев   |    .torrent скачан:  26 раз   |   
Раздают:  1  
   
Загрузка...
 
Автор Сообщение

Umakiro

avatar Umakiro


Dexter Gordon / Ca'Purange

Жанр: Hard Bop
Страна-производитель диска: U.S.A.
Год издания диска: 1999
Издатель (лейбл): Prestige
Номер по каталогу: Catalog # OJCCD 1005-2 (P-10051)
Страна: U.S.A.
Аудиокодек: FLAC (*.flac)
Тип рипа: tracks+.cue
Битрейт аудио: lossless
Продолжительность: 38:24
Источник (релизер): другой треккер
Наличие сканов в содержимом раздачи: да
Треклист:
1. Ca'Purange (Lima) 9:50
2. The First Time Ever I Saw Your Face (MacColl) 5:51
3. Oh! Karen O (MacColl) 12:06
4. Airegin (Rollins) 5:05
5. Airegin (Alternate) (Rollins) 5:32
 
Exact Audio Copy V0.99 prebeta 4 from 23. January 2008

EAC extraction logfile from 19. September 2008, 12:22

Dexter Gordon / Ca'Purange

Used drive : PLEXTOR CD-R PREMIUM2 Adapter: 3 ID: 0

Read mode : SecureUtilize accurate stream : YesDefeat audio cache : YesMake use of C2 pointers : No

Read offset correction : 30Overread into Lead-In and Lead-Out : YesFill up missing offset samples with silence : YesDelete leading and trailing silent blocks : NoNull samples used in CRC calculations : YesUsed interface : Native Win32 interface for Win NT & 2000Gap handling : Appended to previous track

Used output format : User Defined EncoderSelected bitrate : 128 kBit/sQuality : HighAdd ID3 tag : NoCommand line compressor : D:\Programme\FLAC\flac.exeAdditional command line options : -5 -V -T "artist=%a" -T "title=%t" -T "album=%g" -T "date=%y" -T "tracknumber=%n" -T "genre=%m" -T "comment=Exact Audio Copy 0.99pb4, Flac 1.2.1.b -5" %s

TOC of the extracted CD

Track | Start | Length | Start sector | End sector --------------------------------------------------------- 1 | 0:00.00 | 9:47.70 | 0 | 44094 2 | 9:47.70 | 5:53.52 | 44095 | 70621 3 | 15:41.47 | 12:07.63 | 70622 | 125209 4 | 27:49.35 | 5:07.27 | 125210 | 148261 5 | 32:56.62 | 5:31.45 | 148262 | 173131

Track 1

Filename E:\Dexter Gordon - Ca'Purange (1972) [FLAC] {1998 Remaster}\01 - Ca'Purange.wav

Pre-gap length 0:00:02.00

Peak level 100.0 % Track quality 100.0 % Test CRC 56420798 Copy CRC 56420798 Accurately ripped (confidence 1) [D513900A] Copy OK

Track 2

Filename E:\Dexter Gordon - Ca'Purange (1972) [FLAC] {1998 Remaster}\02 - The First Time Ever I Saw Your Face.wav

Pre-gap length 0:00:02.37

Peak level 70.0 % Track quality 100.0 % Test CRC 507CAC1B Copy CRC 507CAC1B Accurately ripped (confidence 1) [9C0FB32F] Copy OK

Track 3

Filename E:\Dexter Gordon - Ca'Purange (1972) [FLAC] {1998 Remaster}\03 - Oh! Karen O.wav

Pre-gap length 0:00:02.29

Peak level 100.0 % Track quality 100.0 % Test CRC 3C44E149 Copy CRC 3C44E149 Accurately ripped (confidence 1) [C8899C3E] Copy OK

Track 4

Filename E:\Dexter Gordon - Ca'Purange (1972) [FLAC] {1998 Remaster}\04 - Airegin.wav

Pre-gap length 0:00:02.37

Peak level 86.9 % Track quality 100.0 % Test CRC B1EFDDA6 Copy CRC B1EFDDA6 Accurately ripped (confidence 1) [B6E043F4] Copy OK

Track 5

Filename E:\Dexter Gordon - Ca'Purange (1972) [FLAC] {1998 Remaster}\05 - Airegin (Alternate).wav

Pre-gap length 0:00:02.26

Peak level 83.3 % Track quality 100.0 % Test CRC FE2B0C83 Copy CRC FE2B0C83 Cannot be verified as accurate (confidence 1) [AA655D7D], AccurateRip returned [51889B56] Copy OK

4 track(s) accurately ripped 1 track(s) could not be verified as accurate

Some tracks could not be verified as accurate

No errors occurred

End of status report
 
REM GENRE JazzREM DATE 1998REM DISCID 50090405REM COMMENT "ExactAudioCopy v0.99pb4"PERFORMER "Dexter Gordon"TITLE "Ca'Purange"FILE "01 - Ca'Purange.flac" WAVE TRACK 01 AUDIO TITLE "Ca'Purange" PERFORMER "Dexter Gordon" INDEX 01 00:00:00 TRACK 02 AUDIO TITLE "The First Time Ever I Saw Your Face" PERFORMER "Dexter Gordon" INDEX 00 09:45:42FILE "02 - The First Time Ever I Saw Your Face.flac" WAVE INDEX 01 00:00:00 TRACK 03 AUDIO TITLE "Oh! Karen O" PERFORMER "Dexter Gordon" INDEX 00 05:51:30FILE "03 - Oh! Karen O.flac" WAVE INDEX 01 00:00:00 TRACK 04 AUDIO TITLE "Airegin" PERFORMER "Dexter Gordon" INDEX 00 12:05:35FILE "04 - Airegin.flac" WAVE INDEX 01 00:00:00 TRACK 05 AUDIO TITLE "Airegin (Alternate)" PERFORMER "Dexter Gordon" INDEX 00 05:05:07FILE "05 - Airegin (Alternate).flac" WAVE INDEX 01 00:00:00=================================

REM GENRE JazzREM DATE 1998REM DISCID 50090405REM COMMENT "ExactAudioCopy v0.99pb4"PERFORMER "Dexter Gordon"TITLE "Ca'Purange"FILE "Range.flac" WAVE TRACK 01 AUDIO TITLE "Ca'Purange" PERFORMER "Dexter Gordon" INDEX 01 00:00:00 TRACK 02 AUDIO TITLE "The First Time Ever I Saw Your Face" PERFORMER "Dexter Gordon" INDEX 00 09:45:42 INDEX 01 09:47:70 TRACK 03 AUDIO TITLE "Oh! Karen O" PERFORMER "Dexter Gordon" INDEX 00 15:39:25 INDEX 01 15:41:47 TRACK 04 AUDIO TITLE "Airegin" PERFORMER "Dexter Gordon" INDEX 00 27:47:07 INDEX 01 27:49:35 TRACK 05 AUDIO TITLE "Airegin (Alternate)" PERFORMER "Dexter Gordon" INDEX 00 32:54:42 INDEX 01 32:56:62
 
[CUETools log; Date: 07.08.2011 10:55; Version: 2.1.1][CTDB TOCID: ZAE40MWi49nGXQrAxvB5udbYST8-] disk not present in database.[AccurateRip ID: 000890a9-00276207-50090405] found.Track [ CRC ] Status 01 [d513900a] (2/2) Accurately ripped 02 [9c0fb32f] (2/2) Accurately ripped 03 [c8899c3e] (2/2) Accurately ripped 04 [b6e043f4] (2/2) Accurately ripped 05 [aa655d7d] (0/0) No match but offset

Track Peak [ CRC32 ] [W/O NULL] [ LOG ] -- 100,0 [C4BA4D61] [3E4FEB18] 01 100,0 [56420798] [C95661E8] CRC32 02 70,0 [507CAC1B] [CA9C047B] CRC32 03 100,0 [3C44E149] [5294F7FD] CRC32 04 86,9 [B1EFDDA6] [ECDDABC5] CRC32 05 83,3 [FE2B0C83] [4F96D0F8] CRC32
Dexter Gordon (tenor saxophone);
Thad Jones (trumpet, flugelhorn);
Hank Jones (piano);
Stanley Clarke (bass);
Louis Hayes (drums).


Трекер:  [ 12-Фев-2012 16:44 ]

  

Скачать .torrent

Размер .torrent файла 20 KB


Размер: 246 MB
Хэш (hash) релиза: 66bbb8c58f6031d557af6fc06bef0bed9e0c841c

Еще никто не оставлял запись к записи скачать торрент Dexter Gordon - CaPurange - 1999, FLAC . Будь первым!

!Обратная связь