Скачать порно через торрент Dejitaru dorobou neko Digital cat burglar UnionPeer.org бесплатно онлайн HD качество

Скачать новое порно 2015, 2014 новинки через торрент UnionPeer.org

Порно торрент бесплатно ЮнионПир.орг

Если у вас наблюдаются проблемы со скриншотами, переходом по ссылками, скачиванием торрентов - проблемы в блокировщике рекламы AdBlock. #хорошегоДня!


Статистика раздачи
Размер:  194 MB   |    Зарегистрирован:  5 лет 6 месяцев   |    .torrent скачан:  160 раз   |   
Раздают:  1  
   
Загрузка...
 
Автор Сообщение

Galfimbul

avatar Galfimbul


デジタル泥棒ネコ
Dejitaru dorobou neko / Digital cat burglar / Цифровой воришка

Год производства: 2012 г. (28-01-2012)
Жанр: Oral, School, Straight, Students
Продолжительность: 15 минут (00:15:16)
Цензура: Есть во всех файлах

Язык: Японский
Озвучка: Оригинальная
Студия: Ribbon Frill

Описание: После школы, девушка пообщалась с парнем на счёт фотографий, на них она переодевается в раздевалке. И начала с орального секса, а потом и классический половой акт на школьной парте и полу. © wirruss
Story: After school, questioning the authenticity of the call was transferred to criminal theft a change of clothes, and impossible. Felt action was brought in for ...?

Качество видео: DLversion
Формат видео: MP4
Видео кодек: H.264/AVC
Аудио кодек: AC3
Видео: MPEG4 Video (H264) 960x536 29.97fps 1582Kbps (Maximum bit rate: 4 368 Kbps)
Аудио: Dolby AC3 48000Hz stereo 192kbps

DLsite | DMM
General
Complete name : D:\аниме\хентай_3D\Ribbon Frill\Dejineko_[cen_DL_3DCG]_[H264_960x536_AC3]_28_01_2012_Ribbon_Frill_[wirruss].mp4
Format : MPEG-4
Format profile : Base Media
Codec ID : isom
File size : 194 MiB
Duration : 15mn 16s
Overall bit rate : 1 777 Kbps
Encoded date : UTC 2012-01-30 15:26:40
Tagged date : UTC 2012-01-30 15:26:40

Video
ID : 1
Format : AVC
Format/Info : Advanced Video Codec
Format profile : High@L3.1
Format settings, CABAC : Yes
Format settings, ReFrames : 8 frames
Codec ID : avc1
Codec ID/Info : Advanced Video Coding
Duration : 15mn 16s
Bit rate : 1 582 Kbps
Maximum bit rate : 4 368 Kbps
Width : 960 pixels
Height : 536 pixels
Display aspect ratio : 16:9
Frame rate mode : Constant
Frame rate : 29.970 fps
Color space : YUV
Chroma subsampling : 4:2:0
Bit depth : 8 bits
Scan type : Progressive
Bits/(Pixel*Frame) : 0.103
Stream size : 173 MiB (89%)
Writing library : x264 core 119 r2106 07efeb4
Encoding settings : cabac=1 / ref=8 / deblock=1:-1:-1 / analyse=0x3:0x133 / me=umh / subme=7 / psy=1 / psy_rd=1.00:0.10 / mixed_ref=1 / me_range=16 / chroma_me=1 / trellis=2 / 8x8dct=1 / cqm=0 / deadzone=21,11 / fast_pskip=0 / chroma_qp_offset=-3 / threads=6 / sliced_threads=0 / nr=0 / decimate=1 / interlaced=0 / bluray_compat=0 / constrained_intra=0 / bframes=3 / b_pyramid=2 / b_adapt=2 / b_bias=0 / direct=3 / weightb=1 / open_gop=0 / weightp=2 / keyint=250 / keyint_min=25 / scenecut=40 / intra_refresh=0 / rc_lookahead=50 / rc=crf / mbtree=1 / crf=21.0 / qcomp=0.60 / qpmin=0 / qpmax=69 / qpstep=4 / ip_ratio=1.40 / aq=1:1.00
Encoded date : UTC 2012-01-30 15:26:40
Tagged date : UTC 2012-01-30 15:26:43

Audio
ID : 2
Format : AC-3
Format/Info : Audio Coding 3
Mode extension : CM (complete main)
Codec ID : ac-3
Duration : 15mn 16s
Bit rate mode : Constant
Bit rate : 192 Kbps
Channel(s) : 2 channels
Channel positions : Front: L R
Sampling rate : 48.0 KHz
Bit depth : 16 bits
Compression mode : Lossy
Stream size : 21.0 MiB (11%)
Encoded date : UTC 2012-01-30 15:26:42
Tagged date : UTC 2012-01-30 15:26:43
Приятного просмотра этой новинки


Трекер:  [ 10-Фев-2012 14:58 ]

  

Скачать .torrent

Размер .torrent файла 15 KB


Размер: 194 MB
Хэш (hash) релиза: 3c786a7af12fe90b69016298fbc8cdcce85bbe5f

bot

Топик был перенесен в форум Хентай | С цензурой

Перенес Galfimbul

Хотите добавить комментарий к записи скачать торрент Dejitaru dorobou neko Digital cat burglar

!Обратная связь