Скачать порно через торрент Suisei shoujo yami ni obore ru kokoro Mercury Girl -A Heart Drowning In Darkness- UnionPeer.org бесплатно онлайн HD качество

Скачать новое порно 2015, 2014 новинки через торрент UnionPeer.org

Порно торрент бесплатно ЮнионПир.орг

Если у вас наблюдаются проблемы со скриншотами, переходом по ссылками, скачиванием торрентов - проблемы в блокировщике рекламы AdBlock. #хорошегоДня!


Статистика раздачи
Размер:  104 MB   |    Зарегистрирован:  5 лет 6 месяцев   |    .torrent скачан:  806 раз   |   
Раздают:  2  
   
Загрузка...
 
Автор Сообщение

Galfimbul

avatar Galfimbul


水星少女 闇に溺れる心
Suisei shoujo yami ni obore ru kokoro
Mercury Girl -A Heart Drowning In Darkness-
Девушка Меркурий - утонуть в тёмном сердце

Год производства: 2012 г. (27-01-2012)
Жанр: Anal, Milk, Oral, Titfuck, School, Rape, Students, Tentacles
Продолжительность: 17 минут (00:17:01)
Цензура: Есть во всех файлах

Язык: Японский
Озвучка: Оригинальная
Субтитры: Встроенные неотключаемые (хардсаб)

Режиссер: Dr.TESLA, Производитель: BRIGHTONE, Дизайн: Satoko Matsue, Получение изображений: Colossus, Звук: OLDMARKET
Студия: @OZ

Описание: Симпатичная анимация. Привлекательная девушка-воительница Меркурий, из аниме "Луна в матросках", оказалась в руках одноклассников, одержимых злым духом. Они принялись дразнить её тело превращая в рабу своих сексуальных желаний. © wirruss

Качество видео: DLversion
Формат видео: MP4
Видео кодек: H.264/AVC
Аудио кодек: AC3
Видео: MPEG4 Video (H264) 848x480 15.00fps 664Kbps
Аудио: Dolby AC3 48000Hz stereo 192kbps

DLsiteJAP | DLsiteENG | CGImage (27штук 6MB)
Меркурий Девочка-Сердце Drowning In Darkness-
Меркурий девушка утонуть в темном сердце

Красивых солдат был взят в заложники в здании школы преследовали.
Одержимый злом духе, ее одноклассники переехали, поглаживая ее соски,
дразня ее тело, превращая ее в раба своего собственного желания ...
Hardcore щупальца скользнула в ее влажности, как она оргазм,
Затем в ее протестующих рот и между грудей.
Она проглотила его семя, ее грудь опустошил ее р * ßy
покалывание ... кульминации после mindsplitting г * пе кульминации ...

* S * Удивительные ILOR Луны 3DCG второй (NEW) аниме
Высокое качество сдержанности / нападения / ведомый киносериала
возвращается с богатой историей, разными углами камеры и заканчивая
Эякуляция как никогда ранее!

Теперь с более хардкор сцены, популярный запрос!

* Следующее поколение QD8 Система рендеринга
Более красивая кожа, более чувственные движения, более мучительное выражение лица!
У каждой технологии был полностью переделан, модернизированы или вновь созданы для
этот фильм:.. эротической версии 3.2, версия кожи системе 5, любовь жидкости версии 3.5 +.
Сексуальные сцены с анимированными все новые системы 3S. (Hot!!)

Опыт Mercury со всех сторон в полном объеме, увлекательное движение!

Пример ниже
URL http://atoz.brightone-h.com/cg_sm_01.html
-------------------------------------------------- -------

[Подробнее]
EXE базы
[Специальные форматы]
16:09 WMV 854x480 широкоформатный
JPEG 1280x720 широкоформатный 16:09

[В ролях / CV]
Меркурий: Amane Shiina

[Сотрудники]
Режиссер: Dr.TESLA
Производитель: BRIGHTONE
Дизайн: Сатоко Мацуе
Получение изображений: Колосс
Звук: OLDMARKET
The prettiest soldier was taken hostage in a haunted school building.
Possessed by an evil spirit, her classmates moved in, stroking her nipples,
teasing her body, turning her into a slave of her own desire...
Hardcore tentacles slithered into her wetness as she orgasmed,
then into her protesting mouth and between her breasts.
She swallowed its seed, her breasts ravaged, her p*ssy
tingling... climax after mindsplitting r*pe climax...

* Amazing S*ilor Moon 3DCG 2nd (NEW) anime
The high quality restraint / assault / slave MOVIE series
returns with richer story, multiple camera angles and finishing
cumshots than ever before!

Now with MORE hardcore scenes by popular request!

* Next generation QD8 System rendering
More beautiful skin, more sensual motion, more anguished facial expressions!
EVERY technology has been revamped, upgraded or newly created for
this film: erotic ver. 3.2, skin system ver. 5, love liquid ver. 3.5 +
sex scenes animated with the all new 3S SYSTEM. (Hot!!)

Experience Mercury from all angles in full, engrossing motion!

Sample is below
URL http://atoz.brightone-h.com/cg_sm_01.html
---------------------------------------------------------

[Product details]
EXE base
[Special formats]
WMV 16:9 854x480 widescreen
JPEG 16:9 1280x720 widescreen

[Cast /CV]
Mercury: Amane Shiina

[Staff]
Director: Dr.TESLA
Producer: BRIGHTONE
Design: Satoko Matsue
Imaging: Colossus
Sound: OLDMARKET
General
Complete name : D:\аниме\хентай_3D\@OZ\Mercury_Gir_[cen_DL_3DCG]_[H264_848x480_AC3]_27-01-2012_@OZ.mp4
Format : MPEG-4
Format profile : Base Media
Codec ID : isom
File size : 104 MiB
Duration : 17mn 1s
Overall bit rate : 858 Kbps
Encoded date : UTC 2012-02-02 14:38:14
Tagged date : UTC 2012-02-02 14:38:14

Video
ID : 1
Format : AVC
Format/Info : Advanced Video Codec
Format profile : High@L3.1
Format settings, CABAC : Yes
Format settings, ReFrames : 8 frames
Codec ID : avc1
Codec ID/Info : Advanced Video Coding
Duration : 17mn 1s
Bit rate : 664 Kbps
Maximum bit rate : 2 236 Kbps
Width : 848 pixels
Height : 480 pixels
Display aspect ratio : 16:9
Frame rate mode : Constant
Frame rate : 15.000 fps
Color space : YUV
Chroma subsampling : 4:2:0
Bit depth : 8 bits
Scan type : Progressive
Bits/(Pixel*Frame) : 0.109
Stream size : 80.9 MiB (77%)
Writing library : x264 core 119 r2106 07efeb4
Encoding settings : cabac=1 / ref=8 / deblock=1:0:0 / analyse=0x3:0x133 / me=umh / subme=7 / psy=1 / psy_rd=0.40:0.00 / mixed_ref=1 / me_range=16 / chroma_me=1 / trellis=2 / 8x8dct=1 / cqm=0 / deadzone=21,11 / fast_pskip=0 / chroma_qp_offset=-2 / threads=6 / sliced_threads=0 / nr=0 / decimate=1 / interlaced=0 / bluray_compat=0 / constrained_intra=0 / bframes=16 / b_pyramid=2 / b_adapt=1 / b_bias=0 / direct=3 / weightb=0 / open_gop=0 / weightp=2 / keyint=250 / keyint_min=14 / scenecut=40 / intra_refresh=0 / rc_lookahead=50 / rc=crf / mbtree=1 / crf=22.0 / qcomp=0.70 / qpmin=0 / qpmax=69 / qpstep=4 / ip_ratio=1.40 / aq=1:0.60
Encoded date : UTC 2012-02-02 14:38:14
Tagged date : UTC 2012-02-02 14:38:16

Audio
ID : 2
Format : AC-3
Format/Info : Audio Coding 3
Mode extension : CM (complete main)
Codec ID : ac-3
Duration : 17mn 1s
Bit rate mode : Constant
Bit rate : 192 Kbps
Channel(s) : 2 channels
Channel positions : Front: L R
Sampling rate : 48.0 KHz
Bit depth : 16 bits
Compression mode : Lossy
Stream size : 23.4 MiB (22%)
Encoded date : UTC 2012-02-02 14:38:15
Tagged date : UTC 2012-02-02 14:38:16
Приятного просмотра этой новинки


Трекер:  [ 10-Фев-2012 14:59 ]

  

Скачать .torrent

Размер .torrent файла 17 KB


Размер: 104 MB
Хэш (hash) релиза: ac5e77deba9c89ed0d654feef2766feb48ffda70

bot

Топик был перенесен в форум Хентай | С цензурой

Перенес Galfimbul

Хотите добавить комментарий к записи скачать торрент Suisei shoujo yami ni obore ru kokoro Mercury Girl -A Heart Drowning In Darkness-

!Обратная связь