Скачать порно через торрент Onna senshi Female Warrior UnionPeer.org бесплатно онлайн HD качество

Скачать новое порно 2015, 2014 новинки через торрент UnionPeer.org

Порно торрент бесплатно ЮнионПир.орг

Если у вас наблюдаются проблемы со скриншотами, переходом по ссылками, скачиванием торрентов - проблемы в блокировщике рекламы AdBlock. #хорошегоДня!


Статистика раздачи
Размер:  323 MB   |    Зарегистрирован:  5 лет 6 месяцев   |    .torrent скачан:  470 раз   |   
Раздают:  1  
   
Загрузка...
 
Автор Сообщение

Galfimbul

avatar Galfimbul


女戦士(おっさん編)
Onna senshi / Female Warrior / Воительница

Год производства: 2012 г. (26-01-2012
Жанр: Big tits, Straight, Knight, Mature
Продолжительность: 00:08:24
Цензура: Есть во всех файлах

Язык: Японский
Субтитры: Встроенные неотключаемые (хардсаб)

Студия: AKATA

Описание: Воительница теряется в лесу, приходит к дому лесника, где добродушный лесник дарит порцию секса на улице. © wirruss

Качество видео: DLversion
Формат видео: MP4
Видео кодек: H.264/AVC
Видео: MPEG4 Video (H264) 768x576 30.00fps 5376Kbps (Maximum bit rate: 15.9 Mbps)

DLsiteJAP | DLsiteENG
General
Complete name : D:\аниме\хентай_3D\AKATA\Onna_senshi_[cen_DL_3DCG]_[Xvid_768x576]_26-01-2012_AKATA.avi
Format : AVI
Format/Info : Audio Video Interleave
File size : 842 MiB
Duration : 8mn 23s
Overall bit rate : 14.0 Mbps

Video
ID : 0
Format : MPEG-4 Visual
Format profile : Advanced Simple@L5
Format settings, BVOP : 2
Format settings, QPel : No
Format settings, GMC : No warppoints
Format settings, Matrix : Default (H.263)
Muxing mode : Packed bitstream
Codec ID : XVID
Codec ID/Hint : XviD
Duration : 8mn 23s
Bit rate : 14.0 Mbps
Width : 768 pixels
Height : 576 pixels
Display aspect ratio : 4:3
Frame rate : 30.000 fps
Original frame rate : 25.000 fps
Color space : YUV
Chroma subsampling : 4:2:0
Bit depth : 8 bits
Scan type : Progressive
Compression mode : Lossy
Bits/(Pixel*Frame) : 1.056
Stream size : 842 MiB (100%)
Title : Video Track
Writing library : XviD 64
General
Complete name : D:\аниме\хентай_3D\AKATA\Onna_senshi_[cen_DL_3DCG]_[H264_768x576]_26-01-2012_AKATA_[wirruss].mp4
Format : MPEG-4
Format profile : JVT
Codec ID : avc1
File size : 323 MiB
Duration : 8mn 23s
Overall bit rate : 5 379 Kbps
Encoded date : UTC 2012-02-02 08:31:19
Tagged date : UTC 2012-02-02 08:31:19

Video
ID : 1
Format : AVC
Format/Info : Advanced Video Codec
Format profile : High@L4.1
Format settings, CABAC : Yes
Format settings, ReFrames : 4 frames
Codec ID : avc1
Codec ID/Info : Advanced Video Coding
Duration : 8mn 23s
Bit rate : 5 376 Kbps
Maximum bit rate : 15.9 Mbps
Width : 768 pixels
Height : 576 pixels
Display aspect ratio : 4:3
Frame rate mode : Constant
Frame rate : 30.000 fps
Color space : YUV
Chroma subsampling : 4:2:0
Bit depth : 8 bits
Scan type : Progressive
Bits/(Pixel*Frame) : 0.405
Stream size : 323 MiB (100%)
Writing library : x264 core 119 r2106 07efeb4
Encoding settings : cabac=1 / ref=4 / deblock=1:-1:0 / analyse=0x3:0x113 / me=tesa / subme=10 / psy=1 / psy_rd=0.40:0.00 / mixed_ref=1 / me_range=32 / chroma_me=1 / trellis=2 / 8x8dct=1 / cqm=0 / deadzone=21,11 / fast_pskip=0 / chroma_qp_offset=-2 / threads=6 / sliced_threads=0 / nr=0 / decimate=1 / interlaced=0 / bluray_compat=0 / constrained_intra=0 / bframes=3 / b_pyramid=2 / b_adapt=2 / b_bias=0 / direct=3 / weightb=1 / open_gop=0 / weightp=2 / keyint=250 / keyint_min=25 / scenecut=40 / intra_refresh=0 / rc_lookahead=60 / rc=crf / mbtree=1 / crf=22.0 / qcomp=0.70 / qpmin=0 / qpmax=69 / qpstep=4 / vbv_maxrate=50000 / vbv_bufsize=50000 / crf_max=0.0 / nal_hrd=none / ip_ratio=1.40 / aq=1:0.60
Encoded date : UTC 2012-02-02 08:31:19
Tagged date : UTC 2012-02-02 10:01:28
Material_Duration : 74203
Material_StreamSize : 338498244
Material_FrameCount : 15111


Трекер:  [ 10-Фев-2012 15:00 ]

  

Скачать .torrent

Размер .torrent файла 13 KB


Размер: 323 MB
Хэш (hash) релиза: b04f8cc232f0813d5606abace23ba710f6b632

bot

Топик был перенесен в форум Хентай | С цензурой

Перенес Galfimbul

Хотите добавить комментарий к записи скачать торрент Onna senshi Female Warrior

!Обратная связь