Скачать порно через торрент Tentakuru ando Uicchizu Tentacle and Witches UnionPeer.org бесплатно онлайн HD качество

Скачать новое порно 2015, 2014 новинки через торрент UnionPeer.org

Порно торрент бесплатно ЮнионПир.орг

Если у вас наблюдаются проблемы со скриншотами, переходом по ссылками, скачиванием торрентов - проблемы в блокировщике рекламы AdBlock. #хорошегоДня!


Статистика раздачи
Размер:  672 MB   |    Зарегистрирован:  5 лет 9 месяцев   |    .torrent скачан:  643 раза   |   
Раздают:  1   Качают:  1  
   
Загрузка...
 
Автор Сообщение

Galfimbul

avatar Galfimbul


Tentakuru ando Uicchizu / Tentacle and Witches / Щупальца и Ведьмы

Год производства: 2011 г. | Цензура: Есть
Жанр: Big tits, Small Breasts, Tentacles, School, Comedy
Серии: ep. 1-2 из 3х
Продолжительность: 29 min.
Озвучка: Японская Оригинальная
Озвучка: Русская - Любительская (одноголосая) [Inspector Gadjet]
Субтитры: Внешние ASS/SSA Английские [FAKKU] (1-2) и Русские [FooBoo] (на второй эпизод субтитры отсутствуют)
Режиссер: Tsukasa Kaidou
Студия: [Pixy]
Описание: В доме стоящем на холме всегда обитали ведьмы. И вот учительница Мисс Юко тоже одна из ведьм обитающих там.
Однажды Ичиро Тачибано решает подсмотреть за учительницей - что она там делает в доме....
Озвучка группы [AniDUB]
ВИДЕО ВО 2й СЕРИИ 10 БИТНОЕ!
[Getchu]
[Pixy]
[AniDB]
[world-art]
Качество видео: DVDRip
Формат видео: MP4
Видео кодек: AVC
Аудио кодек: AAC
Видео: MPEG4 Video (H264) 720x480 29.97fps 1324Kbps
Аудио:
Rus: кодек AAC 48000Hz, stereo 192Kbps
Jap: кодек AAC, 48000Hz, stereo 148 Kbps
Format : MPEG-4
Format profile : Base Media
Codec ID : isom
File size : 321 MiB
Duration : 29mn 32s
Overall bit rate : 1 518 Kbps
Encoded date : UTC 2011-07-03 10:54:38
Tagged date : UTC 2011-07-03 10:54:38
Writing application : Yamb 2.1.0.0

Video
ID : 1
Format : AVC
Format/Info : Advanced Video Codec
Format profile : High@L3.1
Format settings, CABAC : Yes
Format settings, ReFrames : 12 frames
Codec ID : avc1
Codec ID/Info : Advanced Video Coding
Duration : 29mn 32s
Bit rate mode : Variable
Bit rate : 1 170 Kbps
Maximum bit rate : 3 439 Kbps
Width : 720 pixels
Height : 480 pixels
Display aspect ratio : 3:2
Frame rate mode : Constant
Frame rate : 29.970 fps
Standard : NTSC
Color space : YUV
Chroma subsampling : 4:2:0
Bit depth : 8 bits
Scan type : Progressive
Bits/(Pixel*Frame) : 0.113
Stream size : 247 MiB (77%)
Writing library : x264 core 115 r1995 c1e60b9
Encoding settings : cabac=1 / ref=12 / deblock=1:0:0 / analyse=0x3:0x133 / me=umh / subme=7 / psy=1 / psy_rd=1.00:0.00 / mixed_ref=1 / me_range=16 / chroma_me=1 / trellis=2 / 8x8dct=1 / cqm=0 / deadzone=21,11 / fast_pskip=1 / chroma_qp_offset=-2 / threads=6 / sliced_threads=0 / nr=0 / decimate=1 / interlaced=0 / bluray_compat=0 / constrained_intra=0 / bframes=6 / b_pyramid=2 / b_adapt=2 / b_bias=0 / direct=3 / weightb=1 / open_gop=0 / weightp=2 / keyint=250 / keyint_min=25 / scenecut=40 / intra_refresh=0 / rc=crf / mbtree=0 / crf=18.0 / qcomp=0.60 / qpmin=0 / qpmax=69 / qpstep=4 / ip_ratio=1.40 / pb_ratio=1.30 / aq=1:1.00
Encoded date : UTC 2011-07-03 10:54:38
Tagged date : UTC 2011-07-03 10:55:04

Audio #1
ID : 2
Format : AAC
Format/Info : Advanced Audio Codec
Format profile : LC
Codec ID : 40
Duration : 29mn 32s
Bit rate mode : Variable
Bit rate : 192 Kbps
Maximum bit rate : 232 Kbps
Channel(s) : 2 channels
Channel positions : Front: L R
Sampling rate : 48.0 KHz
Compression mode : Lossy
Stream size : 41.1 MiB (13%)
Title : [Inspector_Gadjet]
Language : Russian
Encoded date : UTC 2011-07-03 10:54:54
Tagged date : UTC 2011-07-03 10:55:04

Audio #2
ID : 3
Format : AAC
Format/Info : Advanced Audio Codec
Format profile : LC
Codec ID : 40
Duration : 29mn 32s
Bit rate mode : Variable
Bit rate : 148 Kbps
Maximum bit rate : 201 Kbps
Channel(s) : 2 channels
Channel positions : Front: L R
Sampling rate : 48.0 KHz
Compression mode : Lossy
Stream size : 31.3 MiB (10%)
Title : Origin
Language : Japanese
Encoded date : UTC 2011-07-03 10:54:55
Tagged date : UTC 2011-07-03 10:55:04
Качество видео: DVDrip
Формат видео: MKV
Видео кодек: AVC
Аудио кодек: AAC
Видео: MP4 720x480, x264, 29.976 fps, ~1500 kbps
Аудио:
Jap: кодек AAC, 48000Hz, stereo 196 Kbps ,
RUS: кодек AAC, 48000Hz, stereo 192 Kbps ,
Format : Matroska
Format version : Version 2
File size : 350 MiB
Duration : 29mn 11s
Overall bit rate : 1 677 Kbps
Encoded date : UTC 2012-02-01 23:43:16
Writing application : mkvmerge v4.5.0 ('Speed of Light') сборка от Feb 1 2011 02:10:32
Writing library : libebml v1.2.0 + libmatroska v1.1.0
Attachment : Yes

Video
ID : 2
Format : AVC
Format/Info : Advanced Video Codec
Format profile : High 10@L4.0
Format settings, CABAC : Yes
Format settings, ReFrames : 16 frames
Muxing mode : Header stripping
Codec ID : V_MPEG4/ISO/AVC
Duration : 29mn 11s
Width : 720 pixels
Height : 480 pixels
Display aspect ratio : 3:2
Frame rate : 29.970 fps
Standard : NTSC
Color space : YUV
Chroma subsampling : 4:2:0
Bit depth : 10 bits
Scan type : Progressive
Writing library : x264 core 118 r2085 8a62835
Encoding settings : cabac=1 / ref=16 / deblock=1:1:1 / analyse=0x3:0x133 / me=umh / subme=9 / psy=1 / psy_rd=0.40:0.00 / mixed_ref=1 / me_range=16 / chroma_me=1 / trellis=2 / 8x8dct=1 / cqm=0 / deadzone=21,11 / fast_pskip=1 / chroma_qp_offset=-2 / threads=12 / sliced_threads=0 / nr=0 / decimate=1 / interlaced=0 / bluray_compat=0 / constrained_intra=0 / bframes=5 / b_pyramid=2 / b_adapt=2 / b_bias=0 / direct=3 / weightb=1 / open_gop=0 / weightp=2 / keyint=250 / keyint_min=25 / scenecut=40 / intra_refresh=0 / rc_lookahead=60 / rc=crf / mbtree=1 / crf=16.0 / qcomp=0.60 / qpmin=0 / qpmax=81 / qpstep=4 / ip_ratio=1.40 / aq=1:0.60
Language : Russian

Audio #1
ID : 1
Format : AAC
Format/Info : Advanced Audio Codec
Format profile : LC
Codec ID : A_AAC
Duration : 29mn 11s
Channel(s) : 2 channels
Channel positions : Front: L R
Sampling rate : 48.0 KHz
Compression mode : Lossy
Language : Japanese

Audio #2
ID : 3
Format : AAC
Format/Info : Advanced Audio Codec
Format profile : LC
Codec ID : A_AAC
Duration : 29mn 11s
Channel(s) : 2 channels
Channel positions : Front: L R
Sampling rate : 48.0 KHz
Compression mode : Lossy
Language : Russian




Трекер:  [ 10-Фев-2012 14:55 ]

  

Скачать .torrent

Размер .torrent файла 14 KB


Размер: 672 MB
Хэш (hash) релиза: 6512ae808cde481b7615422321fbb7f7c491f553

Торренты, похожие на Tentakuru ando Uicchizu Tentacle and Witches скачать торрент

Форум Название Автор Размер S L Добавлен
Хентай | С цензурой ·· Tentacle and Witches / Tentakuru ando Uicchizu / Щупальца и Ведьмы / Тентакли и Ведьмы (Kaidou Tsukasa, Pixy) (ep. 1-4 of 4) [cen] [2011 г., Anal sex, Big tits, Group sex, Oral sex, X-Ray, Mystic, School, Rape, Tentacles, Witch, 4x DVD5] [jap] LinGr 101604258879.46 GB 2 2 1378435448

05:44

6-Сен-13

bot

Топик был перенесен в форум Хентай | С цензурой

Перенес Galfimbul

Хотите добавить комментарий к записи скачать торрент Tentakuru ando Uicchizu Tentacle and Witches

!Обратная связь