Скачать через торрент Drake - Take Care - 2011 ALAC, lossless бесплатно русская версия torrent активатор

Если у вас наблюдаются проблемы со скриншотами, переходом по ссылками, скачиванием торрентов - проблемы в блокировщике рекламы AdBlock. #хорошегоДня!


Статистика раздачи
Размер:  443 MB   |    Зарегистрирован:  5 лет 5 месяцев   |    .torrent скачан:  43 раза   |   
Раздают:  1  
   
Загрузка...
 
Автор Сообщение

Galfimbul

avatar Galfimbul


Drake - Take Care <br><br> <div align="right"><var class="postImg postImgAligned img-right" title="http://i31.fastpic.ru/big/2011/1107/6c/527cbca90587828da8af7ce4f53bd76c.jpg">
</var>Год: 2011
Страна: USA
Жанр: Hip-Hop
Продолжительность: 01:19:40
Тексты: вшиты
Кодек: ALAC
Программа-риповщик : foobar2000 + iTunes (lossless)
Битрейт: lossless
Треклист:
01. Over My Dead Body (Feat. Chantal Kreviazuk) (Produced By 40)
02. Shot For Me (Produced By 40)
03. Headlines (Produced By Boi-1da & 40)
04. Crew Love (Feat. The Weeknd) (Produced By Illangelo, The Weeknd & 40)
05. Take Care (Feat. Rihanna) (Produced By xx & 40)
06. Marvins Room (Produced By 40) / Buried Alive (Interlude) (Produced By 40 & Supa Dups)
07. Under Ground Kings (Produced By T-Minus & 40)
08. We'll Be Fine (Feat. Birdman) (Produced By T-Minus & 40)
09. Make Me Proud (Feat. Nicki Minaj) (Produced By 40, Ruben Rivera & Chobaz)
10. Lord Knows (Feat. Rick Ross) (Produced By Just Blaze)
11. Cameras (Produced By 40) / Good Ones Go (Feat. The Weeknd) (Interlude) (Produced By 40)
12. Doing It Wrong (Produced By 40)
13. The Real Her (Feat. Lil Wayne & Andr 3000) (Produced By 40)
14. Look What You've Done (Produced By Chase N. Cashe & 40)
15. HYFR (Hell Ya Fucking Right) (Feat. Lil Wayne) (Produced By T-Minus)
16. Practice (Produced By 40)
17. The Ride (Produced By Doc Mckinney & The Weeknd)
<a href="http://fastpic.ru/view/31/2012/0204/5d2b5cf1401222eb65600579edeea6bb.png.html" class="postLink"><var class="postImg" title="http://i31.fastpic.ru/thumb/2012/0204/bb/5d2b5cf1401222eb65600579edeea6bb.jpeg">
</var></a>
  
Exact Audio Copy V1.0 beta 2 from 29. April 2011 <br><br> EAC extraction logfile from 15. November 2011, 10:35 <br><br> Drake / Take Care <br><br> Used drive : ATAPI iHAS224 A Adapter: 3 ID: 0 <br><br> Read mode : SecureUtilize accurate stream : YesDefeat audio cache : YesMake use of C2 pointers : No <br><br> Read offset correction : 6Overread into Lead-In and Lead-Out : NoFill up missing offset samples with silence : YesDelete leading and trailing silent blocks : NoNull samples used in CRC calculations : YesUsed interface : Native Win32 interface for Win NT & 2000Gap handling : Appended to previous track <br><br> Used output format : User Defined EncoderSelected bitrate : 320 kBit/sQuality : HighAdd ID3 tag : NoCommand line compressor : C:\Program Files (x86)\Exact Audio Copy\Flac\flac.exeAdditional command line options : -V -8 -T "artist=%albumartist%" -T "title=%title%" -T "album=%albumtitle%" -T "date=%year%" -T "tracknumber=%tracknr%" -T "genre=%genre%" %source% <br><br> TOC of the extracted CD <br><br> Track | Start | Length | Start sector | End sector---------------------------------------------------------1 | 0:00.00 | 4:32.43 | 0 | 204422 | 4:32.43 | 3:44.54 | 20443 | 372963 | 8:17.22 | 3:26.23 | 37297 | 527694 | 11:43.45 | 3:28.65 | 52770 | 684345 | 15:12.35 | 4:37.19 | 68435 | 892286 | 19:49.54 | 8:15.22 | 89229 | 1263757 | 28:05.01 | 3:32.35 | 126376 | 1423108 | 31:37.36 | 4:08.05 | 142311 | 1609159 | 35:45.41 | 3:36.33 | 160916 | 17714810 | 39:21.74 | 5:07.55 | 177149 | 20022811 | 44:29.54 | 7:14.65 | 200229 | 23284312 | 51:44.44 | 4:25.09 | 232844 | 25272713 | 56:09.53 | 5:21.07 | 252728 | 27680914 | 61:30.60 | 5:01.72 | 276810 | 29945615 | 66:32.57 | 3:26.48 | 299457 | 31495416 | 69:59.30 | 3:57.64 | 314955 | 33279317 | 73:57.19 | 5:51.06 | 332794 | 359124 <br><br> Track 1 <br><br> Filename F:\FLAC\Drake-Take Care\01 Over My Dead Body (feat. Chantal Kreviazuk).wav <br><br> Pre-gap length 0:00:02.00 <br><br> Peak level 99.5 %Extraction speed 3.3 XTrack quality 99.9 %Test CRC 3019F1EECopy CRC 3019F1EETrack not present in AccurateRip databaseCopy OK <br><br> Track 2 <br><br> Filename F:\FLAC\Drake-Take Care\02 Shot for Me.wav <br><br> Peak level 99.2 %Extraction speed 4.2 XTrack quality 100.0 %Test CRC 4DEA29A8Copy CRC 4DEA29A8Track not present in AccurateRip databaseCopy OK <br><br> Track 3 <br><br> Filename F:\FLAC\Drake-Take Care\03 Headlines.wav <br><br> Peak level 99.8 %Extraction speed 4.4 XTrack quality 100.0 %Test CRC 89C4E3C2Copy CRC 89C4E3C2Track not present in AccurateRip databaseCopy OK <br><br> Track 4 <br><br> Filename F:\FLAC\Drake-Take Care\04 Crew Love (feat. The Weekend).wav <br><br> Peak level 99.8 %Extraction speed 4.7 XTrack quality 100.0 %Test CRC B34C0E62Copy CRC B34C0E62Track not present in AccurateRip databaseCopy OK <br><br> Track 5 <br><br> Filename F:\FLAC\Drake-Take Care\05 Take Care (feat. Rihanna).wav <br><br> Peak level 99.8 %Extraction speed 5.1 XTrack quality 100.0 %Test CRC 88A54AA0Copy CRC 88A54AA0Track not present in AccurateRip databaseCopy OK <br><br> Track 6 <br><br> Filename F:\FLAC\Drake-Take Care\06 Marvins Room , Buried Alive (Interlude) (Kendrick Lamar).wav <br><br> Peak level 100.0 %Extraction speed 5.9 XTrack quality 100.0 %Test CRC D3D2DA69Copy CRC D3D2DA69Track not present in AccurateRip databaseCopy OK <br><br> Track 7 <br><br> Filename F:\FLAC\Drake-Take Care\07 Underground Kings.wav <br><br> Peak level 99.8 %Extraction speed 4.5 XTrack quality 99.9 %Test CRC A141177ACopy CRC A141177ATrack not present in AccurateRip databaseCopy OK <br><br> Track 8 <br><br> Filename F:\FLAC\Drake-Take Care\08 We'll Be Fine.wav <br><br> Peak level 99.8 %Extraction speed 6.1 XTrack quality 100.0 %Test CRC 356C968FCopy CRC 356C968FTrack not present in AccurateRip databaseCopy OK <br><br> Track 9 <br><br> Filename F:\FLAC\Drake-Take Care\09 Make Me Proud (feat. Nicki Minaj).wav <br><br> Peak level 99.8 %Extraction speed 4.8 XTrack quality 99.9 %Test CRC 209EB0F3Copy CRC 209EB0F3Track not present in AccurateRip databaseCopy OK <br><br> Track 10 <br><br> Filename F:\FLAC\Drake-Take Care\10 Lord Knows (feat. Rick Ross).wav <br><br> Peak level 99.8 %Extraction speed 5.6 XTrack quality 99.9 %Test CRC F5829649Copy CRC F5829649Track not present in AccurateRip databaseCopy OK <br><br> Track 11 <br><br> Filename F:\FLAC\Drake-Take Care\11 Cameras , Good Ones Go (Interlude).wav <br><br> Peak level 99.8 %Extraction speed 7.3 XTrack quality 100.0 %Test CRC 8CE1F296Copy CRC 8CE1F296Track not present in AccurateRip databaseCopy OK <br><br> Track 12 <br><br> Filename F:\FLAC\Drake-Take Care\12 Doing it Wrong (feat. Stevie Wonder).wav <br><br> Peak level 86.9 %Extraction speed 6.3 XTrack quality 100.0 %Test CRC CD1DD50DCopy CRC CD1DD50DTrack not present in AccurateRip databaseCopy OK <br><br> Track 13 <br><br> Filename F:\FLAC\Drake-Take Care\13 The Real Her (Lil Wayne and Andre 3000).wav <br><br> Peak level 99.8 %Extraction speed 7.7 XTrack quality 100.0 %Test CRC 51FCC719Copy CRC 51FCC719Track not present in AccurateRip databaseCopy OK <br><br> Track 14 <br><br> Filename F:\FLAC\Drake-Take Care\14 Look What You've Done.wav <br><br> Peak level 99.8 %Extraction speed 7.8 XTrack quality 100.0 %Test CRC EA78E71ECopy CRC EA78E71ETrack not present in AccurateRip databaseCopy OK <br><br> Track 15 <br><br> Filename F:\FLAC\Drake-Take Care\15 HYFR (Hell Ya Fucking Right) (feat. Lil Wayne).wav <br><br> Peak level 99.8 %Extraction speed 7.6 XTrack quality 100.0 %Test CRC D7A4D107Copy CRC D7A4D107Track not present in AccurateRip databaseCopy OK <br><br> Track 16 <br><br> Filename F:\FLAC\Drake-Take Care\16 Practice.wav <br><br> Peak level 100.0 %Extraction speed 7.9 XTrack quality 100.0 %Test CRC EEDC4B64Copy CRC EEDC4B64Track not present in AccurateRip databaseCopy OK <br><br> Track 17 <br><br> Filename F:\FLAC\Drake-Take Care\17 The Ride.wav <br><br> Peak level 94.7 %Extraction speed 8.5 XTrack quality 100.0 %Test CRC 2A98141DCopy CRC 2A98141DTrack not present in AccurateRip databaseCopy OK <br><br> None of the tracks are present in the AccurateRip database <br><br> No errors occurred <br><br> End of status report <br><br> ==== Log checksum 2B691C5B1C351A591DFFDAF39A26AB662D0D6B8E82AEB2614AEEEC6A8E1DB879 ====


Трекер:  [ 06-Май-2012 14:57 ]

  

Скачать .torrent

Размер .torrent файла 19 KB


Размер: 443 MB
Хэш (hash) релиза: b4330a8f094c1a5d834aa0b122e43676ec52221f

Еще никто не оставлял запись к записи скачать торрент Drake - Take Care - 2011 ALAC, lossless . Будь первым!

!Обратная связь