Скачать через торрент музыку Yo-Yo Ma, Stuart Duncan, Edgar Meyer, Chris Thile - The Goat Rodeo Sessions - 2011, FLAC бесплатно без регистрации torrent

Если у вас наблюдаются проблемы со скриншотами, переходом по ссылками, скачиванием торрентов - проблемы в блокировщике рекламы AdBlock. #хорошегоДня!


Статистика раздачи
Размер:  299 MB   |    Зарегистрирован:  5 лет 8 месяцев   |    .torrent скачан:  34 раза   |   
Раздают:  1  
   
Загрузка...
 
Автор Сообщение

Umakiro

avatar Umakiro


Yo-Yo Ma, Stuart Duncan, Edgar Meyer, Chris Thile / The Goat Rodeo Sessions

Жанр: Chamber Jazz, Bluegrass
Страна-производитель диска: USA
Год издания диска: 2011
Издатель (лейбл): Sony Classical
Номер по каталогу: 88697841182
Аудиокодек: FLAC (*.flac)
Тип рипа: tracks+.cue
Битрейт аудио: lossless
Продолжительность: 0:57:24
Источник (релизер): arc88
Наличие сканов в содержимом раздачи: да
Треклист:
01. Attaboy (5:43)
02. Quarter Chicken Dark (4:47)
03. Helping Hand (4:32)
04. Where's My Bow? (5:30)
05. Here and Heaven (3:53)
06. Franz and the Eagle (6:54)
07. Less is Moi (7:28)
08. Hill Justice (4:30)
09. No One but You (3:54)
10. 13:8 (5:55)
11. Goat Rodeo (4:19)
 
Exact Audio Copy V1.0 beta 3 from 29. August 2011

EAC extraction logfile from 21. October 2011, 21:47

Yo-Yo Ma, Stuart Duncan, Edgar Meyer, Chris Thile / The Goat Rodeo Sessions

Used drive : TSSTcorpCDDVDW SH-S222L Adapter: 0 ID: 1

Read mode : SecureUtilize accurate stream : YesDefeat audio cache : YesMake use of C2 pointers : No

Read offset correction : 6Overread into Lead-In and Lead-Out : NoFill up missing offset samples with silence : YesDelete leading and trailing silent blocks : NoNull samples used in CRC calculations : YesUsed interface : Installed external ASPI interfaceGap handling : Appended to previous track

Used output format : User Defined EncoderSelected bitrate : 768 kBit/sQuality : HighAdd ID3 tag : NoCommand line compressor : C:\Program Files\Exact Audio Copy\Flac\flac.exeAdditional command line options : -V -8 -T "artist=%artist%" -T "title=%title%" -T "album=%albumtitle%" -T "date=%year%" -T "tracknumber=%tracknr%" -T "genre=%genre%" %source%

TOC of the extracted CD

Track | Start | Length | Start sector | End sector --------------------------------------------------------- 1 | 0:00.00 | 5:42.49 | 0 | 25698 2 | 5:42.49 | 4:47.06 | 25699 | 47229 3 | 10:29.55 | 4:32.17 | 47230 | 67646 4 | 15:01.72 | 5:29.74 | 67647 | 92395 5 | 20:31.71 | 3:53.31 | 92396 | 109901 6 | 24:25.27 | 6:53.44 | 109902 | 140920 7 | 31:18.71 | 7:27.50 | 140921 | 174495 8 | 38:46.46 | 4:29.58 | 174496 | 194728 9 | 43:16.29 | 3:54.13 | 194729 | 212291 10 | 47:10.42 | 5:54.42 | 212292 | 238883 11 | 53:05.09 | 4:18.61 | 238884 | 258294

Track 1

Filename G:\Downloads\Yo-Yo Ma, et al - The Goat Rodeo Sessions (FLAC)\Yo-Yo Ma, Stuart Duncan, Edgar Meyer, Chris Thile - The Goat Rodeo Sessions - 01 - Attaboy.wav

Pre-gap length 0:00:02.00

Peak level 98.1 % Extraction speed 2.1 X Track quality 100.0 % Test CRC 8788AF7B Copy CRC 8788AF7B Track not present in AccurateRip database Copy OK

Track 2

Filename G:\Downloads\Yo-Yo Ma, et al - The Goat Rodeo Sessions (FLAC)\Yo-Yo Ma, Stuart Duncan, Edgar Meyer, Chris Thile - The Goat Rodeo Sessions - 02 - Quarter Chicken Dark.wav

Pre-gap length 0:00:00.01

Peak level 98.0 % Extraction speed 2.2 X Track quality 100.0 % Test CRC 0F08BD8A Copy CRC 0F08BD8A Track not present in AccurateRip database Copy OK

Track 3

Filename G:\Downloads\Yo-Yo Ma, et al - The Goat Rodeo Sessions (FLAC)\Yo-Yo Ma, Stuart Duncan, Edgar Meyer, Chris Thile - The Goat Rodeo Sessions - 03 - Helping Hand.wav

Pre-gap length 0:00:00.01

Peak level 97.1 % Extraction speed 2.1 X Track quality 99.9 % Test CRC 22FD0637 Copy CRC 22FD0637 Track not present in AccurateRip database Copy OK

Track 4

Filename G:\Downloads\Yo-Yo Ma, et al - The Goat Rodeo Sessions (FLAC)\Yo-Yo Ma, Stuart Duncan, Edgar Meyer, Chris Thile - The Goat Rodeo Sessions - 04 - Where's My Bow.wav

Pre-gap length 0:00:00.01

Peak level 97.4 % Extraction speed 2.3 X Track quality 99.9 % Test CRC ED6C9F91 Copy CRC ED6C9F91 Track not present in AccurateRip database Copy OK

Track 5

Filename G:\Downloads\Yo-Yo Ma, et al - The Goat Rodeo Sessions (FLAC)\Yo-Yo Ma, Stuart Duncan, Edgar Meyer, Chris Thile - The Goat Rodeo Sessions - 05 - Here and Heaven.wav

Pre-gap length 0:00:00.01

Peak level 97.9 % Extraction speed 2.7 X Track quality 100.0 % Test CRC 8939AB0D Copy CRC 8939AB0D Track not present in AccurateRip database Copy OK

Track 6

Filename G:\Downloads\Yo-Yo Ma, et al - The Goat Rodeo Sessions (FLAC)\Yo-Yo Ma, Stuart Duncan, Edgar Meyer, Chris Thile - The Goat Rodeo Sessions - 06 - Franz and the Eagle.wav

Pre-gap length 0:00:00.01

Peak level 97.5 % Extraction speed 3.0 X Track quality 100.0 % Test CRC 081B1247 Copy CRC 081B1247 Track not present in AccurateRip database Copy OK

Track 7

Filename G:\Downloads\Yo-Yo Ma, et al - The Goat Rodeo Sessions (FLAC)\Yo-Yo Ma, Stuart Duncan, Edgar Meyer, Chris Thile - The Goat Rodeo Sessions - 07 - Less is Moi.wav

Peak level 98.3 % Extraction speed 3.3 X Track quality 100.0 % Test CRC 5D170156 Copy CRC 5D170156 Track not present in AccurateRip database Copy OK

Track 8

Filename G:\Downloads\Yo-Yo Ma, et al - The Goat Rodeo Sessions (FLAC)\Yo-Yo Ma, Stuart Duncan, Edgar Meyer, Chris Thile - The Goat Rodeo Sessions - 08 - Hill Justice.wav

Peak level 97.8 % Extraction speed 3.3 X Track quality 100.0 % Test CRC 4AE10EDF Copy CRC 4AE10EDF Track not present in AccurateRip database Copy OK

Track 9

Filename G:\Downloads\Yo-Yo Ma, et al - The Goat Rodeo Sessions (FLAC)\Yo-Yo Ma, Stuart Duncan, Edgar Meyer, Chris Thile - The Goat Rodeo Sessions - 09 - No One but You.wav

Pre-gap length 0:00:00.01

Peak level 86.9 % Extraction speed 3.3 X Track quality 100.0 % Test CRC 847F9E6A Copy CRC 847F9E6A Track not present in AccurateRip database Copy OK

Track 10

Filename G:\Downloads\Yo-Yo Ma, et al - The Goat Rodeo Sessions (FLAC)\Yo-Yo Ma, Stuart Duncan, Edgar Meyer, Chris Thile - The Goat Rodeo Sessions - 10 - 13-8.wav

Pre-gap length 0:00:00.01

Peak level 97.4 % Extraction speed 2.9 X Track quality 99.9 % Test CRC 200A7C76 Copy CRC 200A7C76 Track not present in AccurateRip database Copy OK

Track 11

Filename G:\Downloads\Yo-Yo Ma, et al - The Goat Rodeo Sessions (FLAC)\Yo-Yo Ma, Stuart Duncan, Edgar Meyer, Chris Thile - The Goat Rodeo Sessions - 11 - Goat Rodeo.wav

Peak level 98.5 % Extraction speed 3.6 X Track quality 100.0 % Test CRC 13D76DB2 Copy CRC 13D76DB2 Track not present in AccurateRip database Copy OK

None of the tracks are present in the AccurateRip database

No errors occurred

End of status report

---- CUETools DB Plugin V2.1.3

[CTDB TOCID: VcWZrlzrdrYiwMyxv7B1uPQZkUo-] disk not present in database, Submit result: VcWZrlzrdrYiwMyxv7B1uPQZkUo- has been uploaded

==== Log checksum F1FC24F9A1D8F17937268AA4705C8A3189E1C9759DE8A80F345233E7444C310D ====
 
-----------------------

DON'T MODIFY THIS FILE

-----------------------

PERFORMER: auCDtect Task Manager, ver. 1.5.1RC3 build 1.5.1.4Copyright (c) 2008-2010 y-soft. All rights reservedhttp://y-soft.org

ANALYZER: auCDtect: CD records authenticity detector, version 0.8.2Copyright (c) 2004 Oleg Berngardt. All rights reserved.Copyright (c) 2004 Alexander Djourik. All rights reserved.

FILE: Yo-Yo Ma, Stuart Duncan, Edgar Meyer, Chris Thile - The Goat Rodeo Sessions - 11 - Goat Rodeo.flac Size: 22973658 Hash: EF3F432CD075DF8155D964CDDF9A539A Accuracy: -m0 Conclusion: CDDA 100% Signature: 35ABCF562B41711FB5B013B59044EE73045E17F8FILE: Yo-Yo Ma, Stuart Duncan, Edgar Meyer, Chris Thile - The Goat Rodeo Sessions - 10 - 13-8.flac Size: 29774815 Hash: C7D1833BDE3A6BDF9E23192C0139A551 Accuracy: -m0 Conclusion: CDDA 100% Signature: 963C3AB6BBACE5F8E5E07868CDB5BD2839875C7BFILE: Yo-Yo Ma, Stuart Duncan, Edgar Meyer, Chris Thile - The Goat Rodeo Sessions - 09 - No One but You.flac Size: 18729574 Hash: BE2A1DB72A013A39C491B7D841FCD4D5 Accuracy: -m0 Conclusion: CDDA 58% Signature: BFE8E4145046528D70C6F2923E5AD30103396DBFFILE: Yo-Yo Ma, Stuart Duncan, Edgar Meyer, Chris Thile - The Goat Rodeo Sessions - 08 - Hill Justice.flac Size: 26245375 Hash: CE882BB0B7BF91B4CA489077C843AF23 Accuracy: -m0 Conclusion: CDDA 100% Signature: B55255F22D85793C8256267A6F1B3FB5A87CA34EFILE: Yo-Yo Ma, Stuart Duncan, Edgar Meyer, Chris Thile - The Goat Rodeo Sessions - 07 - Less is Moi.flac Size: 38653018 Hash: 02CDBB6924A7315D536A90D4650D8DB6 Accuracy: -m0 Conclusion: CDDA 62% Signature: DBB8653093D7FC2F4CDFE61B085F0629F9689962FILE: Yo-Yo Ma, Stuart Duncan, Edgar Meyer, Chris Thile - The Goat Rodeo Sessions - 06 - Franz and the Eagle.flac Size: 33799505 Hash: 257E199AFFEEA24B33F27AAD8C123A82 Accuracy: -m0 Conclusion: CDDA 100% Signature: C517D3B76C90358C8525018CFE69A59DE688CC0AFILE: Yo-Yo Ma, Stuart Duncan, Edgar Meyer, Chris Thile - The Goat Rodeo Sessions - 05 - Here and Heaven.flac Size: 21409388 Hash: 48654ADABADA30F169A6738385B08761 Accuracy: -m0 Conclusion: CDDA 100% Signature: 044A31BB9000823786799B0DC360B06A177ACB98FILE: Yo-Yo Ma, Stuart Duncan, Edgar Meyer, Chris Thile - The Goat Rodeo Sessions - 04 - Where's My Bow.flac Size: 31731357 Hash: EEBBA057E322252863293C0AF5D83E43 Accuracy: -m0 Conclusion: CDDA 100% Signature: 18B9C2FD9CB684E919BCD3A3A822669D3E49B8BAFILE: Yo-Yo Ma, Stuart Duncan, Edgar Meyer, Chris Thile - The Goat Rodeo Sessions - 03 - Helping Hand.flac Size: 22613511 Hash: 06B32EB329B0813396352D04754594C8 Accuracy: -m0 Conclusion: CDDA 100% Signature: 295A0816472B96EA25B90C59AEA19A9DEECA1833FILE: Yo-Yo Ma, Stuart Duncan, Edgar Meyer, Chris Thile - The Goat Rodeo Sessions - 02 - Quarter Chicken Dark.flac Size: 26338535 Hash: A96CD59705CC4CA835E93528F1AEC79E Accuracy: -m0 Conclusion: CDDA 62% Signature: 044E8E2655F3714BD1440C5084A0A9133C41D9C2FILE: Yo-Yo Ma, Stuart Duncan, Edgar Meyer, Chris Thile - The Goat Rodeo Sessions - 01 - Attaboy.flac Size: 34867933 Hash: 031E44A66C006B8C3F7DA36C6EEA0A01 Accuracy: -m0 Conclusion: CDDA 100% Signature: 5858C440603DCC55F4CEAE1A09AB63A28D632AB5
 
REM GENRE BluegrassREM DATE 2011REM DISCID 980D730BREM COMMENT "ExactAudioCopy v1.0b3"FILE "Yo-Yo Ma, Stuart Duncan, Edgar Meyer, Chris Thile - The Goat Rodeo Sessions - 01 - Attaboy.wav" WAVE TRACK 01 AUDIO INDEX 01 00:00:00 TRACK 02 AUDIO INDEX 00 05:42:48FILE "Yo-Yo Ma, Stuart Duncan, Edgar Meyer, Chris Thile - The Goat Rodeo Sessions - 02 - Quarter Chicken Dark.wav" WAVE INDEX 01 00:00:00 TRACK 03 AUDIO INDEX 00 04:47:05FILE "Yo-Yo Ma, Stuart Duncan, Edgar Meyer, Chris Thile - The Goat Rodeo Sessions - 03 - Helping Hand.wav" WAVE INDEX 01 00:00:00 TRACK 04 AUDIO INDEX 00 04:32:16FILE "Yo-Yo Ma, Stuart Duncan, Edgar Meyer, Chris Thile - The Goat Rodeo Sessions - 04 - Where's My Bow.wav" WAVE INDEX 01 00:00:00 TRACK 05 AUDIO INDEX 00 05:29:73FILE "Yo-Yo Ma, Stuart Duncan, Edgar Meyer, Chris Thile - The Goat Rodeo Sessions - 05 - Here and Heaven.wav" WAVE INDEX 01 00:00:00 TRACK 06 AUDIO INDEX 00 03:53:30FILE "Yo-Yo Ma, Stuart Duncan, Edgar Meyer, Chris Thile - The Goat Rodeo Sessions - 06 - Franz and the Eagle.wav" WAVE INDEX 01 00:00:00FILE "Yo-Yo Ma, Stuart Duncan, Edgar Meyer, Chris Thile - The Goat Rodeo Sessions - 07 - Less is Moi.wav" WAVE TRACK 07 AUDIO INDEX 01 00:00:00FILE "Yo-Yo Ma, Stuart Duncan, Edgar Meyer, Chris Thile - The Goat Rodeo Sessions - 08 - Hill Justice.wav" WAVE TRACK 08 AUDIO INDEX 01 00:00:00 TRACK 09 AUDIO INDEX 00 04:29:57FILE "Yo-Yo Ma, Stuart Duncan, Edgar Meyer, Chris Thile - The Goat Rodeo Sessions - 09 - No One but You.wav" WAVE INDEX 01 00:00:00 TRACK 10 AUDIO INDEX 00 03:54:12FILE "Yo-Yo Ma, Stuart Duncan, Edgar Meyer, Chris Thile - The Goat Rodeo Sessions - 10 - 13-8.wav" WAVE INDEX 01 00:00:00FILE "Yo-Yo Ma, Stuart Duncan, Edgar Meyer, Chris Thile - The Goat Rodeo Sessions - 11 - Goat Rodeo.wav" WAVE TRACK 11 AUDIO INDEX 01 00:00:00
Anytime you learn that Chris Thile is involved with a new project, you can expect it to be fun-filled and unbounded. Seeing Edgar Meyer and Stuart Duncan in the lineup suggests an interesting push/pull between the bluegrass, classical and new acoustic genres. And finding the peerless Yo-Yo Ma on the bill takes the virtuosity quotient up an order of magnitude.

That is what we have with The Goat Rodeo Sessions, due in October from Sony Masterworks, their primarily classical imprint for whom both Ma and Meyer record. From what little information is available, it appears that the music on the album is original and highly-improvisational, much of it written collaboratively in rehearsals or in the studio.

For the uninitiated, a “goat rodeo” is a term used to describe a chaotic situation where a multitude of disparate factors are required to converge in great precision… or it all falls apart. It’s applied here in a humorous way to reference these musicians’ attitude of flying without a net in the studio. Of course, it’s a safe bet that nothing goes wrong with these master musicians, as you can see in this pair of promotional videos.

First up, the guys in the studio recording the tune Atta Boy, launching with a poly-rhythmic tour de force before sliding into a Celtic romp, and then back again.© bluegrasstoday.com
... четыре мастера, четыре инструмента (виолончель, скрипка, контрабас, мандолина). Блюграсс? Не совсем. Камерная музыка? Не совсем. Конечно, при таком составе есть шанс уйти в чистую технику, но и этого не произошло. Получился шикарный полуимпровизационный альбом, более светлый, чем аналогичный по инструментам Sparrow Quartet Абигейл Уошберн, но не менее впечатляющий. Понравилось очень.© J. Andrey Manoukhin
...a chaotic situation where a multitude of disparate factors are required to converge in great precision… or it all falls apart.

Трекер:  [ 09-Фев-2012 15:58 ]

  

Скачать .torrent

Размер .torrent файла 14 KB


Размер: 299 MB
Хэш (hash) релиза: ac162e8efc43feea5bd0100a2b28d250e8dce6b2

L

Отличная музыка!

Хотите добавить комментарий к записи скачать торрент Yo-Yo Ma, Stuart Duncan, Edgar Meyer, Chris Thile - The Goat Rodeo Sessions - 2011, FLAC

!Обратная связь