Скачать через торрент музыку Kellylee Evans - fight or flight? - 2006, FLAC бесплатно без регистрации torrent

Если у вас наблюдаются проблемы со скриншотами, переходом по ссылками, скачиванием торрентов - проблемы в блокировщике рекламы AdBlock. #хорошегоДня!


Статистика раздачи
Размер:  296 MB   |    Зарегистрирован:  5 лет 8 месяцев   |    .torrent скачан:  42 раза   |   
Раздают:  1  
   
Загрузка...
 
Автор Сообщение

Umakiro

avatar Umakiro


Kellylee Evans / fight or flight?

Жанр: Vocal Jazz
Страна-производитель диска: Canada
Год издания диска: 2006
Издатель (лейбл): ENLIVEN! Media
Номер по каталогу: ENLIV001
Страна: Canada
Аудиокодек: FLAC (*.flac)
Тип рипа: tracks+.cue
Битрейт аудио: lossless
Продолжительность: 0:47:19
Источник (релизер): собственный рип
Наличие сканов в содержимом раздачи: да
Треклист:
01. What About Me? (3:57)
02. Lead Me Closer (4:02)
03. I Don't Want You To Love Me (3:53)
04. Hooked (3:47)
05. Fight or Flight? (Help Me, Help You) (3:18)
06. I Don't Think I Want to Know (5:45)
07. Let's Call a Truce Tonight (3:47)
08. Rapunzel (3:39)
09. How Can You Get Along Without Me? (2:53)
10. Enough (3:28)
11. Who Knows (4:04)
12. What About Me? (bonus track) (4:42)
 
Exact Audio Copy V1.0 beta 2 from 29. April 2011

EAC extraction logfile from 12. November 2011, 13:10

Kellylee Evans / fight or flight?

Used drive : BENQ DVD DD DW1640 Adapter: 0 ID: 0

Read mode : SecureUtilize accurate stream : YesDefeat audio cache : YesMake use of C2 pointers : No

Read offset correction : 618Overread into Lead-In and Lead-Out : NoFill up missing offset samples with silence : YesDelete leading and trailing silent blocks : NoNull samples used in CRC calculations : YesUsed interface : Native Win32 interface for Win NT & 2000Gap handling : Appended to previous track

Used output format : User Defined EncoderSelected bitrate : 768 kBit/sQuality : HighAdd ID3 tag : NoCommand line compressor : C:\Program Files\Exact Audio Copy 1.0 beta2\Exact Audio Copy\Flac\flac.exeAdditional command line options : -8 -V -T "ARTIST=%artist%" -T "TITLE=%title%" -T "ALBUM=%albumtitle%" -T "DATE=%year%" -T "TRACKNUMBER=%tracknr%" -T "TOTALTRACKS=%numtracks%" -T "GENRE=%genre%" -T "ALBUMARTIST=%albumartist%" -T "ALBUM ARTIST=%albumartist%

TOC of the extracted CD

Track | Start | Length | Start sector | End sector --------------------------------------------------------- 1 | 0:00.00 | 3:57.12 | 0 | 17786 2 | 3:57.12 | 4:02.25 | 17787 | 35961 3 | 7:59.37 | 3:53.30 | 35962 | 53466 4 | 11:52.67 | 3:47.28 | 53467 | 70519 5 | 15:40.20 | 3:18.13 | 70520 | 85382 6 | 18:58.33 | 5:45.33 | 85383 | 111290 7 | 24:43.66 | 3:47.27 | 111291 | 128342 8 | 28:31.18 | 3:39.31 | 128343 | 144798 9 | 32:10.49 | 2:53.18 | 144799 | 157791 10 | 35:03.67 | 3:28.34 | 157792 | 173425 11 | 38:32.26 | 4:04.02 | 173426 | 191727 12 | 42:36.28 | 4:42.35 | 191728 | 212912

Track 1

Filename D:\Temp\01 - What About Me.wav

Pre-gap length 0:00:02.00

Peak level 99.9 % Extraction speed 5.1 X Track quality 100.0 % Test CRC D163344F Copy CRC D163344F Accurately ripped (confidence 4) [F95D1C46] (AR v1) Copy OK

Track 2

Filename D:\Temp\02 - Lead Me Closer.wav

Peak level 99.9 % Extraction speed 4.8 X Track quality 99.9 % Test CRC B3C117D7 Copy CRC B3C117D7 Accurately ripped (confidence 5) [FF613B9D] (AR v1) Copy OK

Track 3

Filename D:\Temp\03 - I Don't Want You To Love Me.wav

Peak level 98.8 % Extraction speed 5.2 X Track quality 99.9 % Test CRC 211578F1 Copy CRC 211578F1 Accurately ripped (confidence 4) [CA64D272] (AR v1) Copy OK

Track 4

Filename D:\Temp\04 - Hooked.wav

Peak level 98.8 % Extraction speed 5.4 X Track quality 99.9 % Test CRC 89166E43 Copy CRC 89166E43 Accurately ripped (confidence 4) [766BF04D] (AR v1) Copy OK

Track 5

Filename D:\Temp\05 - Fight or Flight (Help Me, Help You).wav

Peak level 98.8 % Extraction speed 5.6 X Track quality 99.9 % Test CRC BDC4FD02 Copy CRC BDC4FD02 Accurately ripped (confidence 4) [6AD6BF39] (AR v1) Copy OK

Track 6

Filename D:\Temp\06 - I Don't Think I Want to Know.wav

Peak level 100.0 % Extraction speed 7.8 X Track quality 100.0 % Test CRC EBB08D59 Copy CRC EBB08D59 Accurately ripped (confidence 4) [4D51AB8E] (AR v1) Copy OK

Track 7

Filename D:\Temp\07 - Let's Call a Truce Tonight.wav

Peak level 98.8 % Extraction speed 7.8 X Track quality 100.0 % Test CRC EC6735FE Copy CRC EC6735FE Accurately ripped (confidence 4) [14A1B174] (AR v1) Copy OK

Track 8

Filename D:\Temp\08 - Rapunzel.wav

Peak level 98.8 % Extraction speed 8.1 X Track quality 100.0 % Test CRC A1503062 Copy CRC A1503062 Accurately ripped (confidence 4) [5F27F10F] (AR v1) Copy OK

Track 9

Filename D:\Temp\09 - How Can You Get Along Without Me.wav

Peak level 98.8 % Extraction speed 8.0 X Track quality 100.0 % Test CRC EEC68D29 Copy CRC EEC68D29 Accurately ripped (confidence 4) [0C1EBB24] (AR v1) Copy OK

Track 10

Filename D:\Temp\10 - Enough.wav

Peak level 98.8 % Extraction speed 6.9 X Track quality 99.9 % Test CRC 86EDF01D Copy CRC 86EDF01D Accurately ripped (confidence 4) [C1D76B5D] (AR v1) Copy OK

Track 11

Filename D:\Temp\11 - Who Knows.wav

Peak level 97.2 % Extraction speed 7.5 X Track quality 99.9 % Test CRC D4D715A6 Copy CRC D4D715A6 Accurately ripped (confidence 4) [AA1B0B7E] (AR v1) Copy OK

Track 12

Filename D:\Temp\12 - What About Me (bonus track).wav

Peak level 98.8 % Extraction speed 9.4 X Track quality 100.0 % Test CRC 102EDB54 Copy CRC 102EDB54 Accurately ripped (confidence 5) [4954B981] (AR v1) Copy OK

All tracks accurately ripped

No errors occurred

End of status report

==== Log checksum FA2695BBAD6E008FAA09935203D3A601417A721C4527E3D75E9061EF1FB1330E ====
 
-----------------------

DON'T MODIFY THIS FILE

-----------------------

PERFORMER: auCDtect Task Manager, ver. 1.5.1RC3 build 1.5.1.4Copyright (c) 2008-2010 y-soft. All rights reservedhttp://y-soft.org

ANALYZER: auCDtect: CD records authenticity detector, version 0.8.2Copyright (c) 2004 Oleg Berngardt. All rights reserved.Copyright (c) 2004 Alexander Djourik. All rights reserved.

FILE: 12 - What About Me (bonus track).flac Size: 27890666 Hash: 929C7D21D9DF214DAA0ED2AA4136A69A Accuracy: -m0 Conclusion: CDDA 100% Signature: BA24D18F0EDF5838C919A6103D38BFE60E55459FFILE: 11 - Who Knows.flac Size: 22909102 Hash: E5F5DE21BADB3E0F31C69C7DACD45331 Accuracy: -m0 Conclusion: CDDA 100% Signature: AA70A5A54636F0B35D688F05730C724928EAB55CFILE: 10 - Enough.flac Size: 21597327 Hash: CDCBC4539DEE48C7FE5DA84FD5588528 Accuracy: -m0 Conclusion: CDDA 100% Signature: 2273EC5BED6467385A6AD4B30FC42C3E052709CCFILE: 09 - How Can You Get Along Without Me.flac Size: 17365850 Hash: 0E32B4B06F5E6E46F1F984D710C52A24 Accuracy: -m0 Conclusion: CDDA 100% Signature: 3417BE3702CFEF207937392200348AF4A5652FDAFILE: 08 - Rapunzel.flac Size: 20932704 Hash: E438A17EFC6BFFABA9E6982617AAE8FA Accuracy: -m0 Conclusion: CDDA 100% Signature: 9A911E0ABA48CB3B484BA6F06452AA0F8EACD289FILE: 07 - Let's Call a Truce Tonight.flac Size: 25285806 Hash: FFB9B7F31BAA1F8BFB8879837FEB05CC Accuracy: -m0 Conclusion: CDDA 100% Signature: 4CE8782C0D55AE1D07EB9023A7373CF1D478550AFILE: 06 - I Don't Think I Want to Know.flac Size: 33269467 Hash: 107C6B861EE61C7756C6088EE64DB245 Accuracy: -m0 Conclusion: CDDA 99% Signature: 178515A5C737AE2BFDFD1F4E16605ED77FA34246FILE: 05 - Fight or Flight (Help Me, Help You).flac Size: 20475342 Hash: 70CD879A57A95BBA174ADCD0D5278DB7 Accuracy: -m0 Conclusion: CDDA 99% Signature: 841F7B020326B0AA81DD7F60CAFF5D787C40D57CFILE: 04 - Hooked.flac Size: 22198104 Hash: 2FD684CA148635510475F7348043BCFA Accuracy: -m0 Conclusion: CDDA 99% Signature: 9261B8E2254E313414B8FCAF930FC0425EF33A67FILE: 03 - I Don't Want You To Love Me.flac Size: 25704929 Hash: 9A37A90DAA3756DB31B5AEF02AF846BA Accuracy: -m0 Conclusion: CDDA 100% Signature: 457FBB2E16C579EF32E35ED68D22087A7707208EFILE: 02 - Lead Me Closer.flac Size: 23382187 Hash: 35851E37B5667C5FE299E3FD5E2CA0E3 Accuracy: -m0 Conclusion: CDDA 100% Signature: A279B57D2A3E4310DB8B33CF9B1E28481A0E0311FILE: 01 - What About Me.flac Size: 24217438 Hash: 5DC818DB8A8237814E123FDF81FD45DB Accuracy: -m0 Conclusion: CDDA 100% Signature: 1BB65F62810CA4ADDDFE53BE3E9456FCF0FDBA1D
 
REM GENRE JazzREM DATE 2006REM DISCID 910B160CREM COMMENT "ExactAudioCopy v1.0b2"PERFORMER "Kellylee Evans"TITLE "fight or flight?"FILE "01 - What About Me.wav" WAVE TRACK 01 AUDIO TITLE "What About Me?" PERFORMER "Kellylee Evans" FLAGS DCP INDEX 01 00:00:00FILE "02 - Lead Me Closer.wav" WAVE TRACK 02 AUDIO TITLE "Lead Me Closer" PERFORMER "Kellylee Evans" FLAGS DCP INDEX 01 00:00:00FILE "03 - I Don't Want You To Love Me.wav" WAVE TRACK 03 AUDIO TITLE "I Don't Want You To Love Me" PERFORMER "Kellylee Evans" FLAGS DCP INDEX 01 00:00:00FILE "04 - Hooked.wav" WAVE TRACK 04 AUDIO TITLE "Hooked" PERFORMER "Kellylee Evans" FLAGS DCP INDEX 01 00:00:00FILE "05 - Fight or Flight (Help Me, Help You).wav" WAVE TRACK 05 AUDIO TITLE "Fight or Flight? (Help Me, Help You)" PERFORMER "Kellylee Evans" FLAGS DCP INDEX 01 00:00:00FILE "06 - I Don't Think I Want to Know.wav" WAVE TRACK 06 AUDIO TITLE "I Don't Think I Want to Know" PERFORMER "Kellylee Evans" FLAGS DCP INDEX 01 00:00:00FILE "07 - Let's Call a Truce Tonight.wav" WAVE TRACK 07 AUDIO TITLE "Let's Call a Truce Tonight" PERFORMER "Kellylee Evans" FLAGS DCP INDEX 01 00:00:00FILE "08 - Rapunzel.wav" WAVE TRACK 08 AUDIO TITLE "Rapunzel" PERFORMER "Kellylee Evans" FLAGS DCP INDEX 01 00:00:00FILE "09 - How Can You Get Along Without Me.wav" WAVE TRACK 09 AUDIO TITLE "How Can You Get Along Without Me?" PERFORMER "Kellylee Evans" FLAGS DCP INDEX 01 00:00:00FILE "10 - Enough.wav" WAVE TRACK 10 AUDIO TITLE "Enough" PERFORMER "Kellylee Evans" FLAGS DCP INDEX 01 00:00:00FILE "11 - Who Knows.wav" WAVE TRACK 11 AUDIO TITLE "Who Knows" PERFORMER "Kellylee Evans" FLAGS DCP INDEX 01 00:00:00FILE "12 - What About Me (bonus track).wav" WAVE TRACK 12 AUDIO TITLE "What About Me? (bonus track)" PERFORMER "Kellylee Evans" FLAGS DCP INDEX 01 00:00:00
Listeners have long claimed that her music is a deceptive drug, creating an eerie calm yet energizing them at the same time.

Трекер:  [ 09-Фев-2012 15:57 ]

  

Скачать .torrent

Размер .torrent файла 13 KB


Размер: 296 MB
Хэш (hash) релиза: bb9cd1cc073a30476fc50af57bf5d203de202db9

Еще никто не оставлял запись к записи скачать торрент Kellylee Evans - fight or flight? - 2006, FLAC . Будь первым!

!Обратная связь