Скачать через торрент музыку Jen Chapin - Linger - 2004, FLAC бесплатно без регистрации torrent

Если у вас наблюдаются проблемы со скриншотами, переходом по ссылками, скачиванием торрентов - проблемы в блокировщике рекламы AdBlock. #хорошегоДня!


Статистика раздачи
Размер:  401 MB   |    Зарегистрирован:  5 лет 8 месяцев   |    .torrent скачан:  36 раз   |   
Раздают:  1  
   
Загрузка...
 
Автор Сообщение

Umakiro

avatar Umakiro


Jen Chapin / Linger

Жанр: Vocal Jazz
Страна-производитель диска: USA
Год издания диска: 2004
Издатель (лейбл): Hybrid Recordings, LLC
Номер по каталогу: HY-20033-2
Страна: USA
Аудиокодек: FLAC (*.flac)
Тип рипа: tracks+.cue
Битрейт аудио: lossless
Продолжительность: 0:58:20
Источник (релизер): собственный рип
Наличие сканов в содержимом раздачи: да
Треклист:
01. Little Hours (3:31)
02. Good at Love (5:05)
03. Me Be Me (5:14)
04. Manchild (3:44)
05. 'Til I Get There (5:15)
06. City (5:34)
07. Numbers (4:39)
08. Hurry Up Sky (4:00)
09. Passive People (4:24)
10. Regular Life (3:45)
11. Gold (6:10)
12. I Could Fall (in Love with You) (7:01)
 
Exact Audio Copy V1.0 beta 2 from 29. April 2011

EAC extraction logfile from 16. November 2011, 1:31

Jen Chapin / Linger

Used drive : BENQ DVD DD DW1640 Adapter: 0 ID: 0

Read mode : SecureUtilize accurate stream : YesDefeat audio cache : YesMake use of C2 pointers : No

Read offset correction : 618Overread into Lead-In and Lead-Out : NoFill up missing offset samples with silence : YesDelete leading and trailing silent blocks : NoNull samples used in CRC calculations : YesUsed interface : Native Win32 interface for Win NT & 2000Gap handling : Appended to previous track

Used output format : User Defined EncoderSelected bitrate : 768 kBit/sQuality : HighAdd ID3 tag : NoCommand line compressor : C:\Program Files\Exact Audio Copy 1.0 beta2\Exact Audio Copy\Flac\flac.exeAdditional command line options : -8 -V -T "ARTIST=%artist%" -T "TITLE=%title%" -T "ALBUM=%albumtitle%" -T "DATE=%year%" -T "TRACKNUMBER=%tracknr%" -T "TOTALTRACKS=%numtracks%" -T "GENRE=%genre%" -T "ALBUMARTIST=%albumartist%" -T "ALBUM ARTIST=%albumartist%

TOC of the extracted CD

Track | Start | Length | Start sector | End sector --------------------------------------------------------- 1 | 0:00.00 | 3:30.55 | 0 | 15804 2 | 3:30.55 | 5:04.67 | 15805 | 38671 3 | 8:35.47 | 5:14.23 | 38672 | 62244 4 | 13:49.70 | 3:43.42 | 62245 | 79011 5 | 17:33.37 | 5:14.45 | 79012 | 102606 6 | 22:48.07 | 5:34.03 | 102607 | 127659 7 | 28:22.10 | 4:38.42 | 127660 | 148551 8 | 33:00.52 | 3:59.50 | 148552 | 166526 9 | 37:00.27 | 4:23.65 | 166527 | 186316 10 | 41:24.17 | 3:45.15 | 186317 | 203206 11 | 45:09.32 | 6:09.50 | 203207 | 230931 12 | 51:19.07 | 7:00.55 | 230932 | 262486

Track 1

Filename D:\Temp\01 - Little Hours.wav

Pre-gap length 0:00:02.00

Peak level 100.0 % Extraction speed 4.9 X Track quality 100.0 % Test CRC 3DEE3364 Copy CRC 3DEE3364 Accurately ripped (confidence 4) [B6047E01] (AR v1) Copy OK

Track 2

Filename D:\Temp\02 - Good at Love.wav

Peak level 98.8 % Extraction speed 5.9 X Track quality 100.0 % Test CRC 285D1005 Copy CRC 285D1005 Accurately ripped (confidence 4) [C35E847E] (AR v1) Copy OK

Track 3

Filename D:\Temp\03 - Me Be Me.wav

Peak level 100.0 % Extraction speed 6.5 X Track quality 100.0 % Test CRC ECC6AE3D Copy CRC ECC6AE3D Accurately ripped (confidence 4) [B95688E2] (AR v1) Copy OK

Track 4

Filename D:\Temp\04 - Manchild.wav

Peak level 98.8 % Extraction speed 6.7 X Track quality 100.0 % Test CRC 9502BC29 Copy CRC 9502BC29 Accurately ripped (confidence 4) [BD1D98CD] (AR v1) Copy OK

Track 5

Filename D:\Temp\05 - 'Til I Get There.wav

Peak level 100.0 % Extraction speed 7.4 X Track quality 100.0 % Test CRC A6F3434E Copy CRC A6F3434E Accurately ripped (confidence 4) [4DAD2168] (AR v1) Copy OK

Track 6

Filename D:\Temp\06 - City.wav

Peak level 100.0 % Extraction speed 8.0 X Track quality 100.0 % Test CRC 6FCF7C92 Copy CRC 6FCF7C92 Accurately ripped (confidence 4) [FDCFFE0D] (AR v1) Copy OK

Track 7

Filename D:\Temp\07 - Numbers.wav

Peak level 100.0 % Extraction speed 7.1 X Track quality 99.9 % Test CRC 0002CDF6 Copy CRC 0002CDF6 Accurately ripped (confidence 4) [63E0EDF7] (AR v1) Copy OK

Track 8

Filename D:\Temp\08 - Hurry Up Sky.wav

Peak level 100.0 % Extraction speed 7.1 X Track quality 99.9 % Test CRC 831CE7CA Copy CRC 831CE7CA Accurately ripped (confidence 4) [333D7908] (AR v1) Copy OK

Track 9

Filename D:\Temp\09 - Passive People.wav

Peak level 100.0 % Extraction speed 8.9 X Track quality 100.0 % Test CRC FA783D94 Copy CRC FA783D94 Accurately ripped (confidence 4) [64D26AB5] (AR v1) Copy OK

Track 10

Filename D:\Temp\10 - Regular Life.wav

Peak level 100.0 % Extraction speed 9.0 X Track quality 100.0 % Test CRC 79E93969 Copy CRC 79E93969 Accurately ripped (confidence 4) [BC2E2DAA] (AR v1) Copy OK

Track 11

Filename D:\Temp\11 - Gold.wav

Peak level 100.0 % Extraction speed 9.8 X Track quality 100.0 % Test CRC 57E0306D Copy CRC 57E0306D Accurately ripped (confidence 3) [34F45C2A] (AR v1) Copy OK

Track 12

Filename D:\Temp\12 - I Could Fall (in Love with You).wav

Peak level 100.0 % Extraction speed 7.6 X Track quality 100.0 % Test CRC CA4D7811 Copy CRC CA4D7811 Accurately ripped (confidence 4) [ED2705D5] (AR v1) Copy OK

All tracks accurately ripped

No errors occurred

End of status report

==== Log checksum 430F4A3A75828430143072BCAEDE06B27BE500EFC5D04262A6C3F189A2E1776C ====
 
-----------------------

DON'T MODIFY THIS FILE

-----------------------

PERFORMER: auCDtect Task Manager, ver. 1.5.1RC3 build 1.5.1.4Copyright (c) 2008-2010 y-soft. All rights reservedhttp://y-soft.org

ANALYZER: auCDtect: CD records authenticity detector, version 0.8.2Copyright (c) 2004 Oleg Berngardt. All rights reserved.Copyright (c) 2004 Alexander Djourik. All rights reserved.

FILE: 12 - I Could Fall (in Love with You).flac Size: 38617126 Hash: 62B4E24007F4724F769F0BB279B44F8A Accuracy: -m0 Conclusion: CDDA 100% Signature: 7CD741BA9DEB0CFA969C99951852AEEBEFA710CBFILE: 11 - Gold.flac Size: 37080325 Hash: 6E98F5CB2AFA1DBCA8A5EF472869176F Accuracy: -m0 Conclusion: CDDA 100% Signature: 315CB25807609ACE757735B6CAA108859AEACA93FILE: 10 - Regular Life.flac Size: 21284152 Hash: 1C35A639C926848191F69575CEF697BA Accuracy: -m0 Conclusion: CDDA 100% Signature: 53455837D6547DBDF953FCDB15FBF5269B510DDBFILE: 09 - Passive People.flac Size: 26867799 Hash: 8E9AE687E7EA6CB227EC8FF3FEAD19E7 Accuracy: -m0 Conclusion: CDDA 100% Signature: F8236B38DE8C2FF8AF48389181C5B7DC4ED8C108FILE: 08 - Hurry Up Sky.flac Size: 19305175 Hash: F50EBA8DDE000E0BD08DC0ACDD2B9242 Accuracy: -m0 Conclusion: CDDA 100% Signature: 3CE8F688A1B12D77BFDA44F61B531474086CAA6CFILE: 07 - Numbers.flac Size: 24990596 Hash: 01B0CC5A58B7310B7C554822548B04CB Accuracy: -m0 Conclusion: CDDA 99% Signature: 21F75DA725D37AA722D58E955308F850BF891221FILE: 06 - City.flac Size: 33783209 Hash: F9B1847397AC4A7EB255CFA544290B7E Accuracy: -m0 Conclusion: CDDA 100% Signature: 3EC91ED9C9017CDD5761521E2A1E8E818A5F3B0DFILE: 05 - 'Til I Get There.flac Size: 30526279 Hash: 240C99F25B4634200F1AAA28F037012C Accuracy: -m0 Conclusion: CDDA 100% Signature: 0CF6364968781E6B793A86D7868279AC6641B8D2FILE: 04 - Manchild.flac Size: 22698607 Hash: 4A51EB36F7599968AA96E81A0F6E69DE Accuracy: -m0 Conclusion: CDDA 100% Signature: 912C702CBE5FCD1DB1077BCE123913B9CE03BBC6FILE: 03 - Me Be Me.flac Size: 34863268 Hash: 8D2EAB096CE5D31A30ABFD1BD3AB609E Accuracy: -m0 Conclusion: CDDA 99% Signature: E37684093765CDCE0EF216D221BDF4BC9D02A71BFILE: 02 - Good at Love.flac Size: 31074221 Hash: C02C3270FF752F850023368B0AF3BC3E Accuracy: -m0 Conclusion: CDDA 100% Signature: 498423A12F957FA1BB75F1F02F265F2890AD1CE0FILE: 01 - Little Hours.flac Size: 21873287 Hash: AC73BDE0C83C4CC686817F903E990021 Accuracy: -m0 Conclusion: CDDA 100% Signature: BCCD53F56E9729FAD0433EAD720C374DDA5029B3
 
REM GENRE Folk/RockREM DATE 2004REM DISCID 890DAB0CREM COMMENT "ExactAudioCopy v1.0b2"PERFORMER "Jen Chapin"TITLE "Linger"FILE "01 - Little Hours.wav" WAVE TRACK 01 AUDIO TITLE "Little Hours" PERFORMER "Jen Chapin" INDEX 01 00:00:00FILE "02 - Good at Love.wav" WAVE TRACK 02 AUDIO TITLE "Good at Love" PERFORMER "Jen Chapin" FLAGS DCP INDEX 01 00:00:00FILE "03 - Me Be Me.wav" WAVE TRACK 03 AUDIO TITLE "Me Be Me" PERFORMER "Jen Chapin" FLAGS DCP INDEX 01 00:00:00FILE "04 - Manchild.wav" WAVE TRACK 04 AUDIO TITLE "Manchild" PERFORMER "Jen Chapin" FLAGS DCP INDEX 01 00:00:00FILE "05 - 'Til I Get There.wav" WAVE TRACK 05 AUDIO TITLE "'Til I Get There" PERFORMER "Jen Chapin" FLAGS DCP INDEX 01 00:00:00FILE "06 - City.wav" WAVE TRACK 06 AUDIO TITLE "City" PERFORMER "Jen Chapin" FLAGS DCP INDEX 01 00:00:00FILE "07 - Numbers.wav" WAVE TRACK 07 AUDIO TITLE "Numbers" PERFORMER "Jen Chapin" FLAGS DCP INDEX 01 00:00:00FILE "08 - Hurry Up Sky.wav" WAVE TRACK 08 AUDIO TITLE "Hurry Up Sky" PERFORMER "Jen Chapin" FLAGS DCP INDEX 01 00:00:00FILE "09 - Passive People.wav" WAVE TRACK 09 AUDIO TITLE "Passive People" PERFORMER "Jen Chapin" FLAGS DCP INDEX 01 00:00:00FILE "10 - Regular Life.wav" WAVE TRACK 10 AUDIO TITLE "Regular Life" PERFORMER "Jen Chapin" FLAGS DCP INDEX 01 00:00:00FILE "11 - Gold.wav" WAVE TRACK 11 AUDIO TITLE "Gold" PERFORMER "Jen Chapin" FLAGS DCP INDEX 01 00:00:00FILE "12 - I Could Fall (in Love with You).wav" WAVE TRACK 12 AUDIO TITLE "I Could Fall (in Love with You)" PERFORMER "Jen Chapin" FLAGS DCP INDEX 01 00:00:00
Sometimes singer/songwriters with eclectic musical tastes can seem bland or unfocused. Fortunately, Jen Chapin is able to blend her folk, jazz, blues, and other influences into a coherent and expressive urban folk style. She tends to favor measured performances over cutting totally loose, but her singing is soulful enough to give her music some backbone. The lyrics to "Gold" provide a good indication of how she is both similar to and different from her father, Harry Chapin; she shares her father's interest in social issues, as indicated by the song's inspiration (a comment by a sharecropper who was interviewed by civil rights leader James Foreman), but she has also been influenced by R&B, as indicated by her name-dropping trombonist Fred Wesley (James Brown, Parliament) during the song. Chapin seems equally comfortable gently chiding people for their political apathy ("Passive People") or using food metaphors for sex ("Me Be Me"); other songs are about heartbreak, hope, nostalgia, self-discovery, and her friend Kristy Ryan, who was killed on 9/11. The album also includes a couple numbers, "'Til I Get There" and "Manchild," that Chapin performed on Live at the Bitter End.© AMG


Трекер:  [ 09-Фев-2012 15:56 ]

  

Скачать .torrent

Размер .torrent файла 17 KB


Размер: 401 MB
Хэш (hash) релиза: 622d97bfa428fd7a489b300199e014cba76a5b51

Еще никто не оставлял запись к записи скачать торрент Jen Chapin - Linger - 2004, FLAC . Будь первым!

!Обратная связь