Скачать через торрент музыку Kellylee Evans - The Good Girl - 2009, FLAC бесплатно без регистрации torrent

Если у вас наблюдаются проблемы со скриншотами, переходом по ссылками, скачиванием торрентов - проблемы в блокировщике рекламы AdBlock. #хорошегоДня!


Статистика раздачи
Размер:  347 MB   |    Зарегистрирован:  5 лет 8 месяцев   |    .torrent скачан:  44 раза   |   
Раздают:  1  
   
Загрузка...
 
Автор Сообщение

Umakiro

avatar Umakiro


Kellylee Evans / The Good Girl

Жанр: Vocal Jazz
Страна-производитель диска: Canada
Год издания диска: 2009
Издатель (лейбл): ENLIVEN! Media
Номер по каталогу: 623339134828
Страна: Canada
Аудиокодек: FLAC (*.flac)
Тип рипа: tracks+.cue
Битрейт аудио: lossless
Продолжительность: 0:44:36
Источник (релизер): собственный рип
Наличие сканов в содержимом раздачи: да
Треклист:
01. Good Girl (3:25)
02. Lost (3:27)
03. Questioning My Path (3:18)
04. I'm Not My Own (3:33)
05. Say It (4:58)
06. Come Home (3:34)
07. Through (3:56)
08. Place We Can Go (4:11)
09. Is It Love (3:45)
10. Glad It's You (2:59)
11. Tonight (2:54)
12. Stay Awake (4:37)
 
Exact Audio Copy V1.0 beta 2 from 29. April 2011

EAC extraction logfile from 13. December 2011, 3:28

Kellylee Evans / The Good Girl

Used drive : BENQ DVD DD DW1640 Adapter: 0 ID: 0

Read mode : SecureUtilize accurate stream : YesDefeat audio cache : YesMake use of C2 pointers : No

Read offset correction : 618Overread into Lead-In and Lead-Out : NoFill up missing offset samples with silence : YesDelete leading and trailing silent blocks : NoNull samples used in CRC calculations : YesUsed interface : Native Win32 interface for Win NT & 2000Gap handling : Appended to previous track

Used output format : User Defined EncoderSelected bitrate : 768 kBit/sQuality : HighAdd ID3 tag : NoCommand line compressor : C:\Program Files\Exact Audio Copy 1.0 beta2\Exact Audio Copy\Flac\flac.exeAdditional command line options : -8 -V -T "ARTIST=%artist%" -T "TITLE=%title%" -T "ALBUM=%albumtitle%" -T "DATE=%year%" -T "TRACKNUMBER=%tracknr%" -T "TOTALTRACKS=%numtracks%" -T "GENRE=%genre%" -T "ALBUMARTIST=%albumartist%" -T "ALBUM ARTIST=%albumartist%

TOC of the extracted CD

Track | Start | Length | Start sector | End sector --------------------------------------------------------- 1 | 0:00.00 | 3:25.09 | 0 | 15383 2 | 3:25.09 | 3:26.48 | 15384 | 30881 3 | 6:51.57 | 3:18.27 | 30882 | 45758 4 | 10:10.09 | 3:32.40 | 45759 | 61698 5 | 13:42.49 | 4:57.60 | 61699 | 84033 6 | 18:40.34 | 3:34.29 | 84034 | 100112 7 | 22:14.63 | 3:55.43 | 100113 | 117780 8 | 26:10.31 | 4:10.55 | 117781 | 136585 9 | 30:21.11 | 3:44.69 | 136586 | 153454 10 | 34:06.05 | 2:58.50 | 153455 | 166854 11 | 37:04.55 | 2:54.00 | 166855 | 179904 12 | 39:58.55 | 4:37.19 | 179905 | 200698

Track 1

Filename D:\Temp\01 - Good Girl.wav

Pre-gap length 0:00:02.00

Peak level 98.9 % Extraction speed 4.9 X Track quality 100.0 % Test CRC A8994E0D Copy CRC A8994E0D Track not present in AccurateRip database Copy OK

Track 2

Filename D:\Temp\02 - Lost.wav

Peak level 98.9 % Extraction speed 5.3 X Track quality 100.0 % Test CRC 5036CDAE Copy CRC 5036CDAE Track not present in AccurateRip database Copy OK

Track 3

Filename D:\Temp\03 - Questioning My Path.wav

Peak level 98.8 % Extraction speed 5.8 X Track quality 100.0 % Test CRC C0489251 Copy CRC C0489251 Track not present in AccurateRip database Copy OK

Track 4

Filename D:\Temp\04 - I'm Not My Own.wav

Peak level 98.9 % Extraction speed 6.3 X Track quality 100.0 % Test CRC 1FAA63F1 Copy CRC 1FAA63F1 Track not present in AccurateRip database Copy OK

Track 5

Filename D:\Temp\05 - Say It.wav

Peak level 98.9 % Extraction speed 6.1 X Track quality 99.9 % Test CRC A16969F4 Copy CRC A16969F4 Track not present in AccurateRip database Copy OK

Track 6

Filename D:\Temp\06 - Come Home.wav

Peak level 98.8 % Extraction speed 7.1 X Track quality 100.0 % Test CRC 9EFD8518 Copy CRC 9EFD8518 Track not present in AccurateRip database Copy OK

Track 7

Filename D:\Temp\07 - Through.wav

Peak level 98.9 % Extraction speed 7.6 X Track quality 100.0 % Test CRC 46EB72DD Copy CRC 46EB72DD Track not present in AccurateRip database Copy OK

Track 8

Filename D:\Temp\08 - Place We Can Go.wav

Peak level 98.8 % Extraction speed 8.0 X Track quality 100.0 % Test CRC 98B0A800 Copy CRC 98B0A800 Track not present in AccurateRip database Copy OK

Track 9

Filename D:\Temp\09 - Is It Love.wav

Peak level 98.8 % Extraction speed 8.2 X Track quality 100.0 % Test CRC 444B2049 Copy CRC 444B2049 Track not present in AccurateRip database Copy OK

Track 10

Filename D:\Temp\10 - Glad It's You.wav

Peak level 98.9 % Extraction speed 8.2 X Track quality 100.0 % Test CRC 8864AAD9 Copy CRC 8864AAD9 Track not present in AccurateRip database Copy OK

Track 11

Filename D:\Temp\11 - Tonight.wav

Peak level 98.9 % Extraction speed 8.2 X Track quality 100.0 % Test CRC F0F09D48 Copy CRC F0F09D48 Track not present in AccurateRip database Copy OK

Track 12

Filename D:\Temp\12 - Stay Awake.wav

Peak level 98.9 % Extraction speed 7.7 X Track quality 99.9 % Test CRC D83427F6 Copy CRC D83427F6 Track not present in AccurateRip database Copy OK

None of the tracks are present in the AccurateRip database

No errors occurred

End of status report

==== Log checksum 0F27403C6D847CE2A41AD767C22133691728DE527973CFF470D4D724A2ACCC1B ====
 
REM GENRE JazzREM DATE 2009REM DISCID 7A0A730CREM COMMENT "ExactAudioCopy v1.0b2"PERFORMER "Kellylee Evans"TITLE "The Good Girl"FILE "01 - Good Girl.wav" WAVE TRACK 01 AUDIO TITLE "Good Girl" PERFORMER "Kellylee Evans" FLAGS DCP INDEX 01 00:00:00FILE "02 - Lost.wav" WAVE TRACK 02 AUDIO TITLE "Lost" PERFORMER "Kellylee Evans" FLAGS DCP INDEX 01 00:00:00FILE "03 - Questioning My Path.wav" WAVE TRACK 03 AUDIO TITLE "Questioning My Path" PERFORMER "Kellylee Evans" FLAGS DCP INDEX 01 00:00:00FILE "04 - I'm Not My Own.wav" WAVE TRACK 04 AUDIO TITLE "I'm Not My Own" PERFORMER "Kellylee Evans" FLAGS DCP INDEX 01 00:00:00FILE "05 - Say It.wav" WAVE TRACK 05 AUDIO TITLE "Say It" PERFORMER "Kellylee Evans" FLAGS DCP INDEX 01 00:00:00FILE "06 - Come Home.wav" WAVE TRACK 06 AUDIO TITLE "Come Home" PERFORMER "Kellylee Evans" FLAGS DCP INDEX 01 00:00:00FILE "07 - Through.wav" WAVE TRACK 07 AUDIO TITLE "Through" PERFORMER "Kellylee Evans" FLAGS DCP INDEX 01 00:00:00FILE "08 - Place We Can Go.wav" WAVE TRACK 08 AUDIO TITLE "Place We Can Go" PERFORMER "Kellylee Evans" FLAGS DCP INDEX 01 00:00:00FILE "09 - Is It Love.wav" WAVE TRACK 09 AUDIO TITLE "Is It Love" PERFORMER "Kellylee Evans" FLAGS DCP INDEX 01 00:00:00FILE "10 - Glad It's You.wav" WAVE TRACK 10 AUDIO TITLE "Glad It's You" PERFORMER "Kellylee Evans" FLAGS DCP INDEX 01 00:00:00FILE "11 - Tonight.wav" WAVE TRACK 11 AUDIO TITLE "Tonight" PERFORMER "Kellylee Evans" FLAGS DCP INDEX 01 00:00:00FILE "12 - Stay Awake.wav" WAVE TRACK 12 AUDIO TITLE "Stay Awake" PERFORMER "Kellylee Evans" FLAGS DCP INDEX 01 00:00:00


Трекер:  [ 09-Фев-2012 15:55 ]

  

Скачать .torrent

Размер .torrent файла 15 KB


Размер: 347 MB
Хэш (hash) релиза: 7cac878a05e7b9a74f11ec4bdc803cbb57370d1e

Еще никто не оставлял запись к записи скачать торрент Kellylee Evans - The Good Girl - 2009, FLAC . Будь первым!

!Обратная связь