Скачать через торрент музыку Clare Teal - Get Happy - 2008, FLAC бесплатно без регистрации torrent

Если у вас наблюдаются проблемы со скриншотами, переходом по ссылками, скачиванием торрентов - проблемы в блокировщике рекламы AdBlock. #хорошегоДня!


Статистика раздачи
Размер:  321 MB   |    Зарегистрирован:  5 лет 8 месяцев   |    .torrent скачан:  36 раз   |   
Раздают:  1  
   
Загрузка...
 
Автор Сообщение

Umakiro

avatar Umakiro


Clare Teal / Get Happy

Жанр: Vocal Jazz
Страна-производитель диска: EU
Год издания диска: 2008
Издатель (лейбл): W14 music
Номер по каталогу: 176 1246
Страна: UK
Аудиокодек: FLAC (*.flac)
Тип рипа: tracks+.cue
Битрейт аудио: lossless
Продолжительность: 0:49:07
Источник (релизер): собственный рип
Наличие сканов в содержимом раздачи: да
Треклист:
01. All For Love (4:21)
02. Ger Happy (2:41)
03. Love hurts (4:33)
04. Begin The Beguine (4:19)
05. Cheek to Cheek (3:29)
06. Get On It Sam (2:57)
07. The very Thought Of You (4:32)
08. Breaking Up is Hard To Do (3:05)
09. Moondance (4:59)
10. Love For Sale (3:41)
11. High Love (3:35)
12. Time After Time (3:42)
13. All The Things You Are (3:12)
 
Exact Audio Copy V1.0 beta 2 from 29. April 2011

EAC extraction logfile from 28. December 2011, 1:16

Clare Teal / Get Happy

Used drive : BENQ DVD DD DW1640 Adapter: 0 ID: 0

Read mode : SecureUtilize accurate stream : YesDefeat audio cache : YesMake use of C2 pointers : No

Read offset correction : 618Overread into Lead-In and Lead-Out : NoFill up missing offset samples with silence : YesDelete leading and trailing silent blocks : NoNull samples used in CRC calculations : YesUsed interface : Native Win32 interface for Win NT & 2000Gap handling : Appended to previous track

Used output format : User Defined EncoderSelected bitrate : 768 kBit/sQuality : HighAdd ID3 tag : NoCommand line compressor : C:\Program Files\Exact Audio Copy 1.0 beta2\Exact Audio Copy\Flac\flac.exeAdditional command line options : -V -8 -T "Genre=%genre%" -T "Artist=%artist%" -T "Title=%title%" -T "Album=%albumtitle%" -T "Date=%year%" -T "Tracknumber=%tracknr%" -T "Comment=%comment%" %source%

TOC of the extracted CD

Track | Start | Length | Start sector | End sector --------------------------------------------------------- 1 | 0:00.00 | 4:20.73 | 0 | 19572 2 | 4:20.73 | 2:41.17 | 19573 | 31664 3 | 7:02.15 | 4:33.25 | 31665 | 52164 4 | 11:35.40 | 4:19.15 | 52165 | 71604 5 | 15:54.55 | 3:29.13 | 71605 | 87292 6 | 19:23.68 | 2:57.07 | 87293 | 100574 7 | 22:21.00 | 4:32.23 | 100575 | 120997 8 | 26:53.23 | 3:04.60 | 120998 | 134857 9 | 29:58.08 | 4:59.02 | 134858 | 157284 10 | 34:57.10 | 3:40.65 | 157285 | 173849 11 | 38:38.00 | 3:35.08 | 173850 | 189982 12 | 42:13.08 | 3:42.07 | 189983 | 206639 13 | 45:55.15 | 3:11.48 | 206640 | 221012

Track 1

Filename D:\Temp\01 - All For Love.wav

Pre-gap length 0:00:02.00

Peak level 98.2 % Extraction speed 5.2 X Track quality 100.0 % Test CRC A4844743 Copy CRC A4844743 Accurately ripped (confidence 3) [3B15B30C] (AR v2) Copy OK

Track 2

Filename D:\Temp\02 - Ger Happy.wav

Pre-gap length 0:00:00.60

Peak level 98.2 % Extraction speed 5.4 X Track quality 100.0 % Test CRC 8C68CBDB Copy CRC 8C68CBDB Accurately ripped (confidence 3) [9C2D1C62] (AR v2) Copy OK

Track 3

Filename D:\Temp\03 - Love hurts.wav

Pre-gap length 0:00:01.67

Peak level 98.1 % Extraction speed 6.2 X Track quality 100.0 % Test CRC 73B8C63A Copy CRC 73B8C63A Accurately ripped (confidence 3) [D9E9BEB9] (AR v2) Copy OK

Track 4

Filename D:\Temp\04 - Begin The Beguine.wav

Pre-gap length 0:00:00.10

Peak level 92.4 % Extraction speed 6.8 X Track quality 100.0 % Test CRC D12AE3E8 Copy CRC D12AE3E8 Accurately ripped (confidence 3) [E7326746] (AR v2) Copy OK

Track 5

Filename D:\Temp\05 - Cheek to Cheek.wav

Pre-gap length 0:00:01.62

Peak level 98.2 % Extraction speed 5.7 X Track quality 99.9 % Test CRC BA97858C Copy CRC BA97858C Accurately ripped (confidence 3) [0B27B48A] (AR v2) Copy OK

Track 6

Filename D:\Temp\06 - Get On It Sam.wav

Pre-gap length 0:00:01.18

Peak level 98.2 % Extraction speed 7.0 X Track quality 100.0 % Test CRC 9CD6CDE7 Copy CRC 9CD6CDE7 Accurately ripped (confidence 2) [82D25429] (AR v2) Copy OK

Track 7

Filename D:\Temp\07 - The very Thought Of You.wav

Pre-gap length 0:00:02.15

Peak level 98.1 % Extraction speed 7.8 X Track quality 100.0 % Test CRC 86327339 Copy CRC 86327339 Accurately ripped (confidence 2) [25B247AE] (AR v2) Copy OK

Track 8

Filename D:\Temp\08 - Breaking Up is Hard To Do.wav

Pre-gap length 0:00:02.70

Peak level 98.1 % Extraction speed 7.7 X Track quality 100.0 % Test CRC 2052F843 Copy CRC 2052F843 Accurately ripped (confidence 2) [492DC08A] (AR v2) Copy OK

Track 9

Filename D:\Temp\09 - Moondance.wav

Pre-gap length 0:00:01.08

Peak level 98.2 % Extraction speed 8.5 X Track quality 100.0 % Test CRC 00662D4C Copy CRC 00662D4C Accurately ripped (confidence 3) [C600B75B] (AR v2) Copy OK

Track 10

Filename D:\Temp\10 - Love For Sale.wav

Pre-gap length 0:00:02.25

Peak level 98.1 % Extraction speed 8.5 X Track quality 100.0 % Test CRC 5B480C21 Copy CRC 5B480C21 Accurately ripped (confidence 3) [B704F75E] (AR v2) Copy OK

Track 11

Filename D:\Temp\11 - High Love.wav

Pre-gap length 0:00:02.27

Peak level 98.0 % Extraction speed 7.2 X Track quality 99.9 % Test CRC DCD4FA3B Copy CRC DCD4FA3B Accurately ripped (confidence 3) [6F631FFE] (AR v2) Copy OK

Track 12

Filename D:\Temp\12 - Time After Time.wav

Pre-gap length 0:00:02.48

Peak level 98.2 % Extraction speed 7.4 X Track quality 99.9 % Test CRC 18AC31B5 Copy CRC 18AC31B5 Accurately ripped (confidence 2) [D02D2F26] (AR v2) Copy OK

Track 13

Filename D:\Temp\13 - All The Things You Are.wav

Pre-gap length 0:00:03.00

Peak level 92.8 % Extraction speed 9.1 X Track quality 100.0 % Test CRC 8632BC98 Copy CRC 8632BC98 Accurately ripped (confidence 2) [7387A7CC] (AR v2) Copy OK

All tracks accurately ripped

No errors occurred

End of status report

==== Log checksum 2FB5508EA08BED09DD2F5024E567C2A6D368059C3169945D3E3F70CCC1DBAE6A ====
 
REM GENRE JazzREM DATE 2008REM DISCID AD0B820DREM COMMENT "ExactAudioCopy v1.0b2"PERFORMER "Clare Teal"TITLE "Get Happy"FILE "01 - All For Love.wav" WAVE TRACK 01 AUDIO TITLE "All For Love" PERFORMER "Clare Teal" INDEX 01 00:00:00 TRACK 02 AUDIO TITLE "Ger Happy" PERFORMER "Clare Teal" FLAGS DCP INDEX 00 04:20:13FILE "02 - Ger Happy.wav" WAVE INDEX 01 00:00:00 TRACK 03 AUDIO TITLE "Love hurts" PERFORMER "Clare Teal" FLAGS DCP INDEX 00 02:39:25FILE "03 - Love hurts.wav" WAVE INDEX 01 00:00:00 TRACK 04 AUDIO TITLE "Begin The Beguine" PERFORMER "Clare Teal" FLAGS DCP INDEX 00 04:33:15FILE "04 - Begin The Beguine.wav" WAVE INDEX 01 00:00:00 TRACK 05 AUDIO TITLE "Cheek to Cheek" PERFORMER "Clare Teal" FLAGS DCP INDEX 00 04:17:28FILE "05 - Cheek to Cheek.wav" WAVE INDEX 01 00:00:00 TRACK 06 AUDIO TITLE "Get On It Sam" PERFORMER "Clare Teal" FLAGS DCP INDEX 00 03:27:70FILE "06 - Get On It Sam.wav" WAVE INDEX 01 00:00:00 TRACK 07 AUDIO TITLE "The very Thought Of You" PERFORMER "Clare Teal" FLAGS DCP INDEX 00 02:54:67FILE "07 - The very Thought Of You.wav" WAVE INDEX 01 00:00:00 TRACK 08 AUDIO TITLE "Breaking Up is Hard To Do" PERFORMER "Clare Teal" FLAGS DCP INDEX 00 04:29:28FILE "08 - Breaking Up is Hard To Do.wav" WAVE INDEX 01 00:00:00 TRACK 09 AUDIO TITLE "Moondance" PERFORMER "Clare Teal" FLAGS DCP INDEX 00 03:03:52FILE "09 - Moondance.wav" WAVE INDEX 01 00:00:00 TRACK 10 AUDIO TITLE "Love For Sale" PERFORMER "Clare Teal" FLAGS DCP INDEX 00 04:56:52FILE "10 - Love For Sale.wav" WAVE INDEX 01 00:00:00 TRACK 11 AUDIO TITLE "High Love" PERFORMER "Clare Teal" FLAGS DCP INDEX 00 03:38:38FILE "11 - High Love.wav" WAVE INDEX 01 00:00:00 TRACK 12 AUDIO TITLE "Time After Time" PERFORMER "Clare Teal" FLAGS DCP INDEX 00 03:32:35FILE "12 - Time After Time.wav" WAVE INDEX 01 00:00:00 TRACK 13 AUDIO TITLE "All The Things You Are" PERFORMER "Clare Teal" FLAGS DCP INDEX 00 03:39:07FILE "13 - All The Things You Are.wav" WAVE INDEX 01 00:00:00
Clare Teal - vocals, backing vocals
Dennis Rollins - trombone (tracks 1, 6)
James Watson - piano, organ
Simon Little - bass (tracks 1-12)
Chris Dagley - drums, percussion (tracks 1-12)
A. D. Chivers - percussion, backing vocals (tracks 1, 2, 5, 6, 9)
Colin Ball - backing vocals (tracks 5, 6, 9)
When Yorkshire-born singer Clare Teal first surfaced six years back, she sounded like an artist who could deliver a very safe jazz and classic-pop repertoire with a distinctive fizz that came from both technical sophistication and an unequivocal love of the material. Teal grew up fantasising she was Ginger Rogers whirling into the arms of Fred Astaire around the aisles of Keighley shopping centre when she was out with her mum - and that enduring devotion to swing, standards and lyrics about a rosily simplified life remains central to her appeal.

This set marks Teal's move to Universal's W14 imprint (Alison Moyet and Siouxsie Sioux are labelmates), and, of course, it's all tailor-made Michael Parkinson material. Teal's powerful jazz credentials are more to the fore on this album, however, notably in her light-stepping swing over a fast bass-walk on Cheek to Cheek, the Ella Fitzgerald scat-jam at the end, and the Cab Calloway hi-de-ho references in the finale of Moondance. Her clarity and controlled power allow her to make the much-travelled pop ballads Love Hurts and Breaking Up Is Hard to Do her own, but in replacing the sense of desolation in Love for Sale with a kind of plain-speaking resignation, she diminishes its meaning. Some may find many of the other lyrics too cheesy to be delivered without irony, and the Radio 2 vibe too pervasive. But, as always with Teal, she sounds as if she's loving every moment, and for many that will be infectious.
"she sounds as if she's loving every moment, and for many that will be infectious..."

Трекер:  [ 09-Фев-2012 15:55 ]

  

Скачать .torrent

Размер .torrent файла 14 KB


Размер: 321 MB
Хэш (hash) релиза: a75832894ad55fb2629d5e7faee8b85416423919

Еще никто не оставлял запись к записи скачать торрент Clare Teal - Get Happy - 2008, FLAC . Будь первым!

!Обратная связь