Скачать через торрент музыку Dr. Michael White - Dancing in the Sky - 2004, FLAC бесплатно без регистрации torrent

Если у вас наблюдаются проблемы со скриншотами, переходом по ссылками, скачиванием торрентов - проблемы в блокировщике рекламы AdBlock. #хорошегоДня!


Статистика раздачи
Размер:  387 MB   |    Зарегистрирован:  5 лет 8 месяцев   |    .torrent скачан:  50 раз   |   
Раздают:  1  
   
Загрузка...
 
Автор Сообщение

Umakiro

avatar Umakiro


Dr. Michael White / Dancing in the Sky

Жанр: New Orleans Jazz, Blues
Год издания диска: 2004
Страна: USA
Аудиокодек: FLAC (*.flac)
Тип рипа: tracks+.cue
Битрейт аудио: lossless
Продолжительность: 1:09:55
Источник (релизер): thashit
Наличие сканов в содержимом раздачи: нет
Треклист:
01. Algiers Hoodoo Woman (7:51)
02. Dancing In The Sky (Reflection) (6:07)
03. The Truth of the Blues (4:53)
04. Give It Up (Gypsy Second Line) (6:05)
05. The Hag's Rag (4:36)
06. Angel In The Day (Devil At Night) (5:56)
07. Jambalaya Strut (3:47)
08. When the Mighty Mississippi Sleeps (4:32)
09. New Orleans Bounce (Out of the Woods) (6:13)
10. Creole Nights (6:11)
11. Down by the Riverside (5:53)
12. Amazing Grace (3:51)
13. Dancing in the Sky (Transition) (3:58)
 
Exact Audio Copy V0.99 prebeta 5 from 4. May 2009

EAC extraction logfile from 24. September 2010, 7:22

Dr. Michael White / Dancing in the Sky

Used drive : MATSHITADVD-RAM UJ-850S Adapter: 0 ID: 0

Read mode : SecureUtilize accurate stream : YesDefeat audio cache : YesMake use of C2 pointers : No

Read offset correction : 102Overread into Lead-In and Lead-Out : NoFill up missing offset samples with silence : YesDelete leading and trailing silent blocks : NoNull samples used in CRC calculations : YesUsed interface : Installed external ASPI interfaceGap handling : Appended to previous track

Used output format : User Defined EncoderSelected bitrate : 320 kBit/sQuality : HighAdd ID3 tag : NoCommand line compressor : C:\Program Files\Exact Audio Copy\Flac\flac.exeAdditional command line options : -V -8 -T "artist=%a" -T "title=%t" -T "album=%g" -T "date=%y" -T "tracknumber=%n" -T "genre=%m" %s

TOC of the extracted CD

Track | Start | Length | Start sector | End sector --------------------------------------------------------- 1 | 0:00.00 | 7:51.30 | 0 | 35354 2 | 7:51.30 | 6:07.30 | 35355 | 62909 3 | 13:58.60 | 4:53.02 | 62910 | 84886 4 | 18:51.62 | 6:05.28 | 84887 | 112289 5 | 24:57.15 | 4:36.02 | 112290 | 132991 6 | 29:33.17 | 5:56.27 | 132992 | 159718 7 | 35:29.44 | 3:46.40 | 159719 | 176708 8 | 39:16.09 | 4:31.49 | 176709 | 197082 9 | 43:47.58 | 6:13.08 | 197083 | 225065 10 | 50:00.66 | 6:11.06 | 225066 | 252896 11 | 56:11.72 | 5:53.31 | 252897 | 279402 12 | 62:05.28 | 3:51.30 | 279403 | 296757 13 | 65:56.58 | 3:57.67 | 296758 | 314599

Track 1

Filename C:\Dr. Michael White - Dancing in the Sky (2004) [FLAC]\01 - Algiers Hoodoo Woman.wav

Pre-gap length 0:00:02.00

Peak level 97.7 % Track quality 100.0 % Test CRC EBFFFD5C Copy CRC EBFFFD5C Accurately ripped (confidence 2) [64291E3D] Copy OK

Track 2

Filename C:\Dr. Michael White - Dancing in the Sky (2004) [FLAC]\02 - Dancing In The Sky (Reflection).wav

Pre-gap length 0:00:01.37

Peak level 97.7 % Track quality 100.0 % Test CRC B4093B6F Copy CRC B4093B6F Accurately ripped (confidence 2) [D76152DA] Copy OK

Track 3

Filename C:\Dr. Michael White - Dancing in the Sky (2004) [FLAC]\03 - The Truth of the Blues.wav

Pre-gap length 0:00:02.27

Peak level 97.7 % Track quality 100.0 % Test CRC 8B5ADBF9 Copy CRC 8B5ADBF9 Accurately ripped (confidence 2) [2C7568D3] Copy OK

Track 4

Filename C:\Dr. Michael White - Dancing in the Sky (2004) [FLAC]\04 - Give It Up (Gypsy Second Line).wav

Pre-gap length 0:00:02.17

Peak level 97.7 % Track quality 100.0 % Test CRC 486D346B Copy CRC 486D346B Accurately ripped (confidence 2) [7D303A45] Copy OK

Track 5

Filename C:\Dr. Michael White - Dancing in the Sky (2004) [FLAC]\05 - The Hag's Rag.wav

Pre-gap length 0:00:01.30

Peak level 97.7 % Track quality 100.0 % Test CRC 73E557FF Copy CRC 73E557FF Accurately ripped (confidence 2) [EC6202D2] Copy OK

Track 6

Filename C:\Dr. Michael White - Dancing in the Sky (2004) [FLAC]\06 - Angel In The Day (Devil At Night).wav

Pre-gap length 0:00:01.05

Peak level 97.7 % Track quality 100.0 % Test CRC FC77C3BC Copy CRC FC77C3BC Accurately ripped (confidence 2) [BC4807C0] Copy OK

Track 7

Filename C:\Dr. Michael White - Dancing in the Sky (2004) [FLAC]\07 - Jambalaya Strut.wav

Pre-gap length 0:00:02.26

Peak level 97.7 % Track quality 100.0 % Test CRC 7104402C Copy CRC 7104402C Accurately ripped (confidence 2) [A463393B] Copy OK

Track 8

Filename C:\Dr. Michael White - Dancing in the Sky (2004) [FLAC]\08 - When the Mighty Mississippi Sleeps.wav

Pre-gap length 0:00:02.08

Peak level 97.7 % Track quality 99.9 % Test CRC 38953AA3 Copy CRC 38953AA3 Accurately ripped (confidence 2) [BF9F51D0] Copy OK

Track 9

Filename C:\Dr. Michael White - Dancing in the Sky (2004) [FLAC]\09 - New Orleans Bounce (Out of the Woods).wav

Pre-gap length 0:00:03.04

Peak level 97.7 % Track quality 100.0 % Test CRC 736D2672 Copy CRC 736D2672 Accurately ripped (confidence 2) [AA9B1537] Copy OK

Track 10

Filename C:\Dr. Michael White - Dancing in the Sky (2004) [FLAC]\10 - Creole Nights.wav

Pre-gap length 0:00:02.04

Peak level 97.7 % Track quality 100.0 % Test CRC 954A56D7 Copy CRC 954A56D7 Accurately ripped (confidence 2) [AE268286] Copy OK

Track 11

Filename C:\Dr. Michael White - Dancing in the Sky (2004) [FLAC]\11 - Down by the Riverside.wav

Pre-gap length 0:00:02.46

Peak level 97.7 % Track quality 100.0 % Test CRC 706E5CCB Copy CRC 706E5CCB Accurately ripped (confidence 2) [0F54D8B2] Copy OK

Track 12

Filename C:\Dr. Michael White - Dancing in the Sky (2004) [FLAC]\12 - Amazing Grace.wav

Pre-gap length 0:00:01.45

Peak level 97.7 % Track quality 100.0 % Test CRC 5C2A1F7F Copy CRC 5C2A1F7F Accurately ripped (confidence 2) [37116510] Copy OK

Track 13

Filename C:\Dr. Michael White - Dancing in the Sky (2004) [FLAC]\13 - Dancing in the Sky (Transition).wav

Pre-gap length 0:00:01.25

Peak level 97.7 % Track quality 100.0 % Test CRC E8AEF4E7 Copy CRC E8AEF4E7 Accurately ripped (confidence 2) [5196CD67] Copy OK

All tracks accurately ripped

No errors occurred

End of status report
 
-----------------------

DON'T MODIFY THIS FILE

-----------------------

PERFORMER: auCDtect Task Manager, ver. 1.5.1RC3 build 1.5.1.4Copyright (c) 2008-2010 y-soft. All rights reservedhttp://y-soft.org

ANALYZER: auCDtect: CD records authenticity detector, version 0.8.2Copyright (c) 2004 Oleg Berngardt. All rights reserved.Copyright (c) 2004 Alexander Djourik. All rights reserved.

FILE: 13 - Dancing in the Sky (Transition).flac Size: 22732444 Hash: 81E0FE8364C506A794533C08257DBDC1 Accuracy: -m0 Conclusion: MPEG 95% Signature: 4D10153E5EFD33EF8B2002F3994CEC1C691F9E37FILE: 12 - Amazing Grace.flac Size: 18643781 Hash: CED31DC949DDE25C1D8E2FF88634EF38 Accuracy: -m0 Conclusion: CDDA 100% Signature: E104353597B0C000BA4DE17ED9C6BDDBF0793361FILE: 11 - Down by the Riverside.flac Size: 34470346 Hash: 5755D49CB8396DA2C7F3EE9E60197F55 Accuracy: -m0 Conclusion: MPEG 95% Signature: F03DD9F1BAEB050BBA2E1C718AC3A9C0CCD88233FILE: 10 - Creole Nights.flac Size: 34228283 Hash: 83CF10DDB3083AF3273D8243521D9CED Accuracy: -m0 Conclusion: CDDA 100% Signature: 611D6CB408DCA4BF3561100AD891FF83F33F9DBEFILE: 09 - New Orleans Bounce (Out of the Woods).flac Size: 40445901 Hash: DCF1420A766E78477865BBA6DFF0B4E7 Accuracy: -m0 Conclusion: CDDA 99% Signature: 6DFC10482EE16CF7626FBA8EA73FD9F2A941F6C5FILE: 08 - When the Mighty Mississippi Sleeps.flac Size: 27265706 Hash: DE89C4FDAC627ECAEDBBD8DB6884906A Accuracy: -m0 Conclusion: CDDA 100% Signature: 16C4F33110C34474340687CD115041765B055196FILE: 07 - Jambalaya Strut.flac Size: 21680075 Hash: BBF36B8985032F6E7B3F0EB83BCFC6EE Accuracy: -m0 Conclusion: MPEG 95% Signature: 2D02FC5885A8A04F30741B2B02DD33700042257FFILE: 06 - Angel In The Day (Devil At Night).flac Size: 35053838 Hash: 0933CBEC9625BD5BBFEEE66C6C36B409 Accuracy: -m0 Conclusion: MPEG 95% Signature: 89C29441D1947AB569D831C82211CC096052ADAFFILE: 05 - The Hag's Rag.flac Size: 26986538 Hash: 10B3DF1B042D6B335145260878F740ED Accuracy: -m0 Conclusion: CDDA 100% Signature: A8375AAEE0BED5F04687F2F83970FC05E74667EBFILE: 04 - Give It Up (Gypsy Second Line).flac Size: 33317334 Hash: 6D800A5F1D8D094F2312F8A5804F2CC6 Accuracy: -m0 Conclusion: CDDA 100% Signature: C318CC94B0C5AB6C63E414807B9C379C8E38DCC6FILE: 03 - The Truth of the Blues.flac Size: 29283210 Hash: FE64759A753C2623349594AABE07525D Accuracy: -m0 Conclusion: CDDA 100% Signature: E02E6D096AA638D6762911017043CEB5DA7040EAFILE: 02 - Dancing In The Sky (Reflection).flac Size: 37062412 Hash: DE8F0FA1F451DE13B6358F198313C5CC Accuracy: -m0 Conclusion: MPEG 95% Signature: 248C7111C7AFC12654454130F212D959DA68B9DDFILE: 01 - Algiers Hoodoo Woman.flac Size: 44554121 Hash: 77297C6F67F26313A1D0EEE1653C0F3D Accuracy: -m0 Conclusion: CDDA 99% Signature: 69244ECF9B193E9D68084C90077D1B09003F5598
 
REM GENRE JazzREM DATE 2004REM DISCID BC10620DREM COMMENT "ExactAudioCopy v0.99pb5"PERFORMER "Dr. Michael White"TITLE "Dancing in the Sky"FILE "01 - Algiers Hoodoo Woman.wav" WAVE TRACK 01 AUDIO TITLE "Algiers Hoodoo Woman" PERFORMER "Dr. Michael White" INDEX 01 00:00:00 TRACK 02 AUDIO TITLE "Dancing In The Sky (Reflection)" PERFORMER "Dr. Michael White" INDEX 00 07:49:68FILE "02 - Dancing In The Sky (Reflection).wav" WAVE INDEX 01 00:00:00 TRACK 03 AUDIO TITLE "The Truth of the Blues" PERFORMER "Dr. Michael White" INDEX 00 06:05:03FILE "03 - The Truth of the Blues.wav" WAVE INDEX 01 00:00:00 TRACK 04 AUDIO TITLE "Give It Up (Gypsy Second Line)" PERFORMER "Dr. Michael White" INDEX 00 04:50:60FILE "04 - Give It Up (Gypsy Second Line).wav" WAVE INDEX 01 00:00:00 TRACK 05 AUDIO TITLE "The Hag's Rag" PERFORMER "Dr. Michael White" INDEX 00 06:03:73FILE "05 - The Hag's Rag.wav" WAVE INDEX 01 00:00:00 TRACK 06 AUDIO TITLE "Angel In The Day (Devil At Night)" PERFORMER "Dr. Michael White" INDEX 00 04:34:72FILE "06 - Angel In The Day (Devil At Night).wav" WAVE INDEX 01 00:00:00 TRACK 07 AUDIO TITLE "Jambalaya Strut" PERFORMER "Dr. Michael White" INDEX 00 05:54:01FILE "07 - Jambalaya Strut.wav" WAVE INDEX 01 00:00:00 TRACK 08 AUDIO TITLE "When the Mighty Mississippi Sleeps" PERFORMER "Dr. Michael White" INDEX 00 03:44:32FILE "08 - When the Mighty Mississippi Sleeps.wav" WAVE INDEX 01 00:00:00 TRACK 09 AUDIO TITLE "New Orleans Bounce (Out of the Woods)" PERFORMER "Dr. Michael White" INDEX 00 04:28:45FILE "09 - New Orleans Bounce (Out of the Woods).wav" WAVE INDEX 01 00:00:00 TRACK 10 AUDIO TITLE "Creole Nights" PERFORMER "Dr. Michael White" INDEX 00 06:11:04FILE "10 - Creole Nights.wav" WAVE INDEX 01 00:00:00 TRACK 11 AUDIO TITLE "Down by the Riverside" PERFORMER "Dr. Michael White" INDEX 00 06:08:35FILE "11 - Down by the Riverside.wav" WAVE INDEX 01 00:00:00 TRACK 12 AUDIO TITLE "Amazing Grace" PERFORMER "Dr. Michael White" INDEX 00 05:51:61FILE "12 - Amazing Grace.wav" WAVE INDEX 01 00:00:00 TRACK 13 AUDIO TITLE "Dancing in the Sky (Transition)" PERFORMER "Dr. Michael White" INDEX 00 03:50:05FILE "13 - Dancing in the Sky (Transition).wav" WAVE INDEX 01 00:00:00
 
[CUETools log; Date: 24.01.2012 0:54:21; Version: 2.1.1][CTDB TOCID: N_NJikMZKMWCHFs_GQKR40zEo8g-] disk not present in database.[AccurateRip ID: 0023902d-015d99e4-bc10620d] found.Track [ CRC ] Status 01 [64291e3d] (2/2) Accurately ripped 02 [d76152da] (2/2) Accurately ripped 03 [2c7568d3] (2/2) Accurately ripped 04 [7d303a45] (2/2) Accurately ripped 05 [ec6202d2] (2/2) Accurately ripped 06 [bc4807c0] (2/2) Accurately ripped 07 [a463393b] (2/2) Accurately ripped 08 [bf9f51d0] (2/2) Accurately ripped 09 [aa9b1537] (2/2) Accurately ripped 10 [ae268286] (2/2) Accurately ripped 11 [0f54d8b2] (2/2) Accurately ripped 12 [37116510] (2/2) Accurately ripped 13 [5196cd67] (2/2) Accurately ripped

Track Peak [ CRC32 ] [W/O NULL] [ LOG ] -- 97,7 [5E8BEDCD] [88B3751C] 01 97,7 [EBFFFD5C] [798809CB] CRC32 02 97,7 [B4093B6F] [C8CB751C] CRC32 03 97,7 [8B5ADBF9] [FC7051FA] CRC32 04 97,7 [486D346B] [848521A6] CRC32 05 97,7 [73E557FF] [69DD0C1B] CRC32 06 97,7 [FC77C3BC] [12793E61] CRC32 07 97,7 [7104402C] [4B9F3351] CRC32 08 97,7 [38953AA3] [AE49E9D1] CRC32 09 97,7 [736D2672] [D82385FC] CRC32 10 97,7 [954A56D7] [259CF83F] CRC32 11 97,7 [706E5CCB] [4850334B] CRC32 12 97,7 [5C2A1F7F] [7E9F8E44] CRC32 13 97,7 [E8AEF4E7] [A49D0F84] CRC32
Dr. Michael White has recorded fairly often since the early '90s, and displays the feel and spirit of the best New Orleans clarinetists. On some of his previous sessions, he slips out of tune in spots, but happily that is not the case on Dancing in the Sky, which is easily his finest recording to date. White composed all but two of the selections and, while some pieces are based on obvious predecessors, others are more original. White is joined by an excellent rhythm section, one of three trumpeters (Nicholas Payton, Mark Braud, or Gregory Stafford), and trombonist Lucien Barbarin. The opening "Algiers Hoodoo Woman" is a little reminiscent of "The Mooche," having the same mysterious feel. Payton, who takes both a wah-wah and an open solo, perfectly fits into this classic style. "Dancing in the Sky (Reflection)" is a cheerful piece featuring Gregory Stafford on trumpet and vocal. "The Truth of the Blues," a quartet showcase for White, is essentially George Lewis' "Burgundy Street Blues," while the catchy "Give It Up" has the same chords as "Bei Mir Bist Du Schon." "The Hag's Rag" is a delightful new rag by White, on which he recalls Tony Parenti a bit. The old-time vaudevillian blues "Angel in the Day (Devil at Night)" features the singing of Thais Clark and a surprise ending in the lyrics. "Jambalaya Strut" brings back the sound of Jelly Roll Morton's Red Hot Peppers in an arrangement that expertly uses breaks with White emulating Johnny Dodds and Payton taking a stop-time solo. "Where the Mighty Mississippi Sleeps" is a melancholy ballad that contrasts with "New Orleans Bounce," a lengthy romp for White on a medium-tempo blues. The set concludes with the feel of early-'30s Duke Ellington on "Creole Nights," a vocal by Gregory Stafford on "Down by the Riverside," some emotional clarinet on a slow "Amazing Grace," and a parade band stomp ("Dancing in the Sky [Transition]") that has all three trumpeters interacting. Everything works on this memorable outing, which is highly recommended to fans of New Orleans jazz.© AMG
Отсебятина:
Это был бы просто еще один хороший альбом, каких много в нью-орлеан-джазе, если бы не гениальный четвертый трек.
Тут же читаем на allmusic: "...the catchy "Give It Up" has the same chords as "Bei Mir Bist Du Schon" - смешно, конечно, но чем не объяснение магии?

Трекер:  [ 09-Фев-2012 15:54 ]

  

Скачать .torrent

Размер .torrent файла 16 KB


Размер: 387 MB
Хэш (hash) релиза: 63845590751d626d0daec28a8e33851e48c1efab

Еще никто не оставлял запись к записи скачать торрент Dr. Michael White - Dancing in the Sky - 2004, FLAC . Будь первым!

!Обратная связь