Скачать через торрент музыку Annie Sellick бесплатно без регистрации torrent

Если у вас наблюдаются проблемы со скриншотами, переходом по ссылками, скачиванием торрентов - проблемы в блокировщике рекламы AdBlock. #хорошегоДня!


Статистика раздачи
Размер:  454 MB   |    Зарегистрирован:  5 лет 8 месяцев   |    .torrent скачан:  28 раз   |   
Раздают:  1  
   
Загрузка...
 
Автор Сообщение

Umakiro

avatar Umakiro


Annie Sellick (feat. Joey DeFrancesco) / No Greater Thrill

Жанр: Vocal Jazz
Страна-производитель диска: USA
Год издания диска: 2003
Издатель (лейбл): Chalice Music Inc.
Номер по каталогу: 635759129421
Страна: USA
Аудиокодек: FLAC (*.flac)
Тип рипа: tracks+.cue
Битрейт аудио: lossless
Продолжительность: 1:09:09
Источник (релизер): собственный рип
Наличие сканов в содержимом раздачи: да
Треклист:
01. I Thought About You (5:39)
02. Dancing Cheek to Cheek (5:05)
03. It Ain't Necessarily So (5:55)
04. You Go To My Head (6:26)
05. I'll Remember April (3:51)
06. Nature Boy (6:35)
07. Accen-tchu-ate The Positive (4:33)
08. Tenderly (6:02)
09. Cafe 123 (4:45)
10. Willow Weep For Me (6:33)
11. There Is No Greater Love (13:45)
 
Exact Audio Copy V1.0 beta 2 from 29. April 2011

EAC extraction logfile from 1. February 2012, 1:02

Annie Sellick / No Greater Thrill

Used drive : BENQ DVD DD DW1640 Adapter: 0 ID: 0

Read mode : SecureUtilize accurate stream : YesDefeat audio cache : YesMake use of C2 pointers : No

Read offset correction : 618Overread into Lead-In and Lead-Out : NoFill up missing offset samples with silence : YesDelete leading and trailing silent blocks : NoNull samples used in CRC calculations : YesUsed interface : Native Win32 interface for Win NT & 2000Gap handling : Appended to previous track

Used output format : User Defined EncoderSelected bitrate : 768 kBit/sQuality : HighAdd ID3 tag : NoCommand line compressor : C:\Program Files\Exact Audio Copy 1.0 beta2\Exact Audio Copy\Flac\flac.exeAdditional command line options : -V -8 -T "Genre=%genre%" -T "Artist=%artist%" -T "Title=%title%" -T "Album=%albumtitle%" -T "Date=%year%" -T "Tracknumber=%tracknr%" -T "Comment=%comment%" %source%

TOC of the extracted CD

Track | Start | Length | Start sector | End sector --------------------------------------------------------- 1 | 0:00.00 | 5:39.15 | 0 | 25439 2 | 5:39.15 | 5:05.37 | 25440 | 48351 3 | 10:44.52 | 5:54.63 | 48352 | 74964 4 | 16:39.40 | 6:26.00 | 74965 | 103914 5 | 23:05.40 | 3:51.26 | 103915 | 121265 6 | 26:56.66 | 6:34.72 | 121266 | 150887 7 | 33:31.63 | 4:32.61 | 150888 | 171348 8 | 38:04.49 | 6:01.62 | 171349 | 198485 9 | 44:06.36 | 4:44.45 | 198486 | 219830 10 | 48:51.06 | 6:32.66 | 219831 | 249296 11 | 55:23.72 | 13:45.27 | 249297 | 311198

Track 1

Filename D:\Temp\01 - I Thought About You.wav

Pre-gap length 0:00:02.00

Peak level 98.3 % Extraction speed 5.6 X Track quality 100.0 % Test CRC BCE729E2 Copy CRC BCE729E2 Track not present in AccurateRip database Copy OK

Track 2

Filename D:\Temp\02 - Dancing Cheek to Cheek.wav

Pre-gap length 0:00:02.00

Peak level 98.3 % Extraction speed 6.2 X Track quality 100.0 % Test CRC 2BCF3DD5 Copy CRC 2BCF3DD5 Track not present in AccurateRip database Copy OK

Track 3

Filename D:\Temp\03 - It Ain't Necessarily So.wav

Pre-gap length 0:00:02.35

Peak level 99.1 % Extraction speed 6.9 X Track quality 100.0 % Test CRC 9DB4042E Copy CRC 9DB4042E Track not present in AccurateRip database Copy OK

Track 4

Filename D:\Temp\04 - You Go To My Head.wav

Pre-gap length 0:00:02.00

Peak level 98.2 % Extraction speed 7.6 X Track quality 100.0 % Test CRC 695EF2E0 Copy CRC 695EF2E0 Track not present in AccurateRip database Copy OK

Track 5

Filename D:\Temp\05 - I'll Remember April.wav

Pre-gap length 0:00:02.35

Peak level 98.9 % Extraction speed 7.6 X Track quality 100.0 % Test CRC 7E7E6B1B Copy CRC 7E7E6B1B Track not present in AccurateRip database Copy OK

Track 6

Filename D:\Temp\06 - Nature Boy.wav

Pre-gap length 0:00:02.35

Peak level 99.0 % Extraction speed 8.6 X Track quality 100.0 % Test CRC 76065C0C Copy CRC 76065C0C Track not present in AccurateRip database Copy OK

Track 7

Filename D:\Temp\07 - Accen-tchu-ate The Positive.wav

Pre-gap length 0:00:02.00

Peak level 98.9 % Extraction speed 8.6 X Track quality 100.0 % Test CRC 1D2C5875 Copy CRC 1D2C5875 Track not present in AccurateRip database Copy OK

Track 8

Filename D:\Temp\08 - Tenderly.wav

Pre-gap length 0:00:02.30

Peak level 97.3 % Extraction speed 9.2 X Track quality 100.0 % Test CRC ED0AEC37 Copy CRC ED0AEC37 Track not present in AccurateRip database Copy OK

Track 9

Filename D:\Temp\09 - Cafe 123.wav

Pre-gap length 0:00:02.00

Peak level 98.9 % Extraction speed 9.4 X Track quality 100.0 % Test CRC 8A300F93 Copy CRC 8A300F93 Track not present in AccurateRip database Copy OK

Track 10

Filename D:\Temp\10 - Willow Weep For Me.wav

Pre-gap length 0:00:02.35

Peak level 98.4 % Extraction speed 10.1 X Track quality 100.0 % Test CRC 4257F173 Copy CRC 4257F173 Track not present in AccurateRip database Copy OK

Track 11

Filename D:\Temp\11 - There Is No Greater Love.wav

Pre-gap length 0:00:02.60

Peak level 98.9 % Extraction speed 10.4 X Track quality 99.9 % Test CRC 6D0DD4F8 Copy CRC 6D0DD4F8 Track not present in AccurateRip database Copy OK

None of the tracks are present in the AccurateRip database

No errors occurred

End of status report

==== Log checksum EE2F6388B4775FCCCFF3AC58D694E1109FC94DFA3B025FFA9040A907F18C2C21 ====
 
-----------------------

DON'T MODIFY THIS FILE

-----------------------

PERFORMER: auCDtect Task Manager, ver. 1.5.1RC3 build 1.5.1.4Copyright (c) 2008-2010 y-soft. All rights reservedhttp://y-soft.org

ANALYZER: auCDtect: CD records authenticity detector, version 0.8.2Copyright (c) 2004 Oleg Berngardt. All rights reserved.Copyright (c) 2004 Alexander Djourik. All rights reserved.

FILE: 11 - There Is No Greater Love.flac Size: 87800895 Hash: 8B71EEFDCD64C1A9AD7ACA9D402CE86A Accuracy: -m0 Conclusion: CDDA 100% Signature: 0FB4F0057B56C82405975F8258086224B47597B2FILE: 10 - Willow Weep For Me.flac Size: 38434804 Hash: 6FD51FC8A78B7BD0D53F73002992BF1F Accuracy: -m0 Conclusion: CDDA 100% Signature: 01DB09BC6870B133144689915F3C6D86222570D2FILE: 09 - Cafe 123.flac Size: 32349391 Hash: 6E58DC35208273F68A2FAD962CC4D2B7 Accuracy: -m0 Conclusion: CDDA 100% Signature: 1CF1219158D2D50D92C54C6EFBDDD0FCE0122C53FILE: 08 - Tenderly.flac Size: 38799587 Hash: F7F11C0F4F0E557B40B47E8ECA0B0D80 Accuracy: -m0 Conclusion: CDDA 100% Signature: 069ECD96DBF1B97ED37F49BE0A2FEF39500B9D6BFILE: 07 - Accen-tchu-ate The Positive.flac Size: 29459255 Hash: 2381CF6CF3239F154B74131AC5B683F5 Accuracy: -m0 Conclusion: CDDA 100% Signature: 0A1138CCCEC45DBA8F5DE5E61D56C0DA0F656BEBFILE: 06 - Nature Boy.flac Size: 41590519 Hash: 27D80FADB843569E6F28AA03B0D2028F Accuracy: -m0 Conclusion: CDDA 100% Signature: B347EAFE0F30BD2CE4ED002D3847D604272E3471FILE: 05 - I'll Remember April.flac Size: 28096583 Hash: 5461A502A74249E13AFDCDD0B04377CC Accuracy: -m0 Conclusion: CDDA 100% Signature: B771C133F48561C44EFA29755039D4B6473686EAFILE: 04 - You Go To My Head.flac Size: 37985494 Hash: 67AEAF2D388E217FA03A5BA83B332622 Accuracy: -m0 Conclusion: CDDA 100% Signature: 7FF44867C08BEDEFDF781BC840EE34EE3FFC3CDDFILE: 03 - It Ain't Necessarily So.flac Size: 34902812 Hash: 9FA36F1CEF6FD23A3AF10BBDDD2DF1B1 Accuracy: -m0 Conclusion: CDDA 100% Signature: 5F81DA13565E283E6C82CBD7E6C298A3E09AB074FILE: 02 - Dancing Cheek to Cheek.flac Size: 36812085 Hash: 8D94ED1A4D13C7BD0B99518A3F64EBC3 Accuracy: -m0 Conclusion: CDDA 100% Signature: 57401C30C5C23B97BE55ED259F349DBC652350DDFILE: 01 - I Thought About You.flac Size: 37823754 Hash: 5E87B84FBD709A17FF9721F03112971D Accuracy: -m0 Conclusion: CDDA 100% Signature: CD66A14D39BF220B6E2DF7B386F7B1FFFC569DB1
 
REM GENRE JazzREM DATE 2003REM DISCID 8910350BREM COMMENT "ExactAudioCopy v1.0b2"PERFORMER "Annie Sellick"TITLE "No Greater Thrill"FILE "01 - I Thought About You.wav" WAVE TRACK 01 AUDIO TITLE "I Thought About You" PERFORMER "Annie Sellick" FLAGS DCP INDEX 01 00:00:00 TRACK 02 AUDIO TITLE "Dancing Cheek to Cheek" PERFORMER "Annie Sellick" FLAGS DCP INDEX 00 05:37:15FILE "02 - Dancing Cheek to Cheek.wav" WAVE INDEX 01 00:00:00 TRACK 03 AUDIO TITLE "It Ain't Necessarily So" PERFORMER "Annie Sellick" FLAGS DCP INDEX 00 05:03:02FILE "03 - It Ain't Necessarily So.wav" WAVE INDEX 01 00:00:00 TRACK 04 AUDIO TITLE "You Go To My Head" PERFORMER "Annie Sellick" FLAGS DCP INDEX 00 05:52:63FILE "04 - You Go To My Head.wav" WAVE INDEX 01 00:00:00 TRACK 05 AUDIO TITLE "I'll Remember April" PERFORMER "Annie Sellick" FLAGS DCP INDEX 00 06:23:40FILE "05 - I'll Remember April.wav" WAVE INDEX 01 00:00:00 TRACK 06 AUDIO TITLE "Nature Boy" PERFORMER "Annie Sellick" FLAGS DCP INDEX 00 03:48:66FILE "06 - Nature Boy.wav" WAVE INDEX 01 00:00:00 TRACK 07 AUDIO TITLE "Accen-tchu-ate The Positive" PERFORMER "Annie Sellick" FLAGS DCP INDEX 00 06:32:72FILE "07 - Accen-tchu-ate The Positive.wav" WAVE INDEX 01 00:00:00 TRACK 08 AUDIO TITLE "Tenderly" PERFORMER "Annie Sellick" FLAGS DCP INDEX 00 04:30:31FILE "08 - Tenderly.wav" WAVE INDEX 01 00:00:00 TRACK 09 AUDIO TITLE "Cafe 123" PERFORMER "Annie Sellick" FLAGS DCP INDEX 00 05:59:62FILE "09 - Cafe 123.wav" WAVE INDEX 01 00:00:00 TRACK 10 AUDIO TITLE "Willow Weep For Me" PERFORMER "Annie Sellick" FLAGS DCP INDEX 00 04:42:10FILE "10 - Willow Weep For Me.wav" WAVE INDEX 01 00:00:00 TRACK 11 AUDIO TITLE "There Is No Greater Love" PERFORMER "Annie Sellick" FLAGS DCP INDEX 00 06:30:06FILE "11 - There Is No Greater Love.wav" WAVE INDEX 01 00:00:00
Annie Sellick - Vocal
Joey DeFrancesco - Hammond B-3 Organ & Vocals
Pat Bergeson - Guitar and Harmonica
Jim White - Drums, Pots & Pans
George Tidwell - Trumpet
Denis Solee - Tenor Sax & Flute
Kim Flemming, Vicki Hampton, Robert Bailey - Background Vocals


Трекер:  [ 09-Фев-2012 15:53 ]

  

Скачать .torrent

Размер .torrent файла 19 KB


Размер: 454 MB
Хэш (hash) релиза: afc0e503fa9fc11e0e135883dd12e714b26a880e

Еще никто не оставлял запись к записи скачать торрент Annie Sellick . Будь первым!

!Обратная связь