Скачать через торрент музыку Maria de Medeiros - A Little More Blue - 2007, FLAC бесплатно без регистрации torrent

Если у вас наблюдаются проблемы со скриншотами, переходом по ссылками, скачиванием торрентов - проблемы в блокировщике рекламы AdBlock. #хорошегоДня!


Статистика раздачи
Размер:  359 MB   |    Зарегистрирован:  5 лет 8 месяцев   |    .torrent скачан:  35 раз   |   
Раздают:  1  
   
Загрузка...
 
Автор Сообщение

Umakiro

avatar Umakiro


Maria de Medeiros / A Little More Blue

Жанр: Vocal Jazz
Страна-производитель диска: France
Год издания диска: 2007
Издатель (лейбл): Universal Music
Номер по каталогу: 984581-7
Страна: Portugal
Аудиокодек: FLAC (*.flac)
Тип рипа: tracks+.cue
Битрейт аудио: lossless
Продолжительность: 0:53:38
Источник (релизер): раздача осуществляется с любезного согласия oxicedrus
Наличие сканов в содержимом раздачи: да
Треклист:
01. Joana Francesa (3:43)
02. Acorda Amor (2:33)
03. A little more blue (5:49)
04. Samba de Orly (4:15)
05. Acalanto (3:59)
06. Tanto mar (3:28)
07. O que sera (4:35)
08. Comecar de novo (3:47)
09. Samba e amor (5:07)
10. O quereres (5:00)
11. Outros sonhos (2:32)
12. O seu amor (1:54)
13. Ela faz cinema (3:31)
14. A noite do meu bem (3:25)
 
Exact Audio Copy V1.0 beta 3 from 29. August 2011

EAC extraction logfile from 1. February 2012, 21:04

Maria de Medeiros / A Little More Blue

Used drive : HL-DT-STDVDRAM GH22NS50 Adapter: 0 ID: 0

Read mode : SecureUtilize accurate stream : YesDefeat audio cache : YesMake use of C2 pointers : No

Read offset correction : 667Overread into Lead-In and Lead-Out : NoFill up missing offset samples with silence : YesDelete leading and trailing silent blocks : NoNull samples used in CRC calculations : YesUsed interface : Installed external ASPI interfaceGap handling : Appended to previous track

Used output format : User Defined EncoderSelected bitrate : 1024 kBit/sQuality : HighAdd ID3 tag : NoCommand line compressor : C:\Program Files\Exact Audio Copy\Flac\flac.exeAdditional command line options : -8 -V -T "ARTIST=%artist%" -T "TITLE=%title%" -T "ALBUM=%albumtitle%" -T "DATE=%year%" -T "TRACKNUMBER=%tracknr%" -T "TOTALTRACKS=%numtracks%" -T "GENRE=%genre%" -T "ALBUMARTIST=%albumartist%" -T "ALBUM ARTIST=%albumartist%" -T "COMMENT=EAC Secure Mode, Test & Copy, AccurateRip, FLAC -8" %source%

TOC of the extracted CD

Track | Start | Length | Start sector | End sector --------------------------------------------------------- 1 | 0:00.00 | 3:43.25 | 0 | 16749 2 | 3:43.25 | 2:33.08 | 16750 | 28232 3 | 6:16.33 | 5:49.25 | 28233 | 54432 4 | 12:05.58 | 4:14.58 | 54433 | 73540 5 | 16:20.41 | 3:58.39 | 73541 | 91429 6 | 20:19.05 | 3:27.69 | 91430 | 107023 7 | 23:46.74 | 4:35.34 | 107024 | 127682 8 | 28:22.33 | 3:46.38 | 127683 | 144670 9 | 32:08.71 | 5:06.60 | 144671 | 167680 10 | 37:15.56 | 4:59.54 | 167681 | 190159 11 | 42:15.35 | 2:31.69 | 190160 | 201553 12 | 44:47.29 | 1:53.63 | 201554 | 210091 13 | 46:41.17 | 3:31.30 | 210092 | 225946 14 | 50:12.47 | 3:25.01 | 225947 | 241322

Track 1

Filename C:\Users\user\Documents\Maria de Medeiros - A Little More Blue (2007) [FLAC]\01 - Maria de Medeiros - Joana Francesa.wav

Pre-gap length 0:00:02.00

Peak level 100.0 % Extraction speed 1.0 X Track quality 100.0 % Test CRC A989480D Copy CRC A989480D Accurately ripped (confidence 2) [A87933C6] (AR v1) Copy OK

Track 2

Filename C:\Users\user\Documents\Maria de Medeiros - A Little More Blue (2007) [FLAC]\02 - Maria de Medeiros - Acorda Amor.wav

Peak level 100.0 % Extraction speed 1.0 X Track quality 100.0 % Test CRC 05412CB2 Copy CRC 05412CB2 Accurately ripped (confidence 2) [AAACD62A] (AR v1) Copy OK

Track 3

Filename C:\Users\user\Documents\Maria de Medeiros - A Little More Blue (2007) [FLAC]\03 - Maria de Medeiros - A little more blue.wav

Peak level 100.0 % Extraction speed 1.3 X Track quality 100.0 % Test CRC A6996540 Copy CRC A6996540 Accurately ripped (confidence 2) [A028DF6A] (AR v1) Copy OK

Track 4

Filename C:\Users\user\Documents\Maria de Medeiros - A Little More Blue (2007) [FLAC]\04 - Maria de Medeiros - Samba de Orly.wav

Peak level 100.0 % Extraction speed 1.4 X Track quality 100.0 % Test CRC 9E4C8C92 Copy CRC 9E4C8C92 Accurately ripped (confidence 2) [5AC50997] (AR v1) Copy OK

Track 5

Filename C:\Users\user\Documents\Maria de Medeiros - A Little More Blue (2007) [FLAC]\05 - Maria de Medeiros - Acalanto.wav

Pre-gap length 0:00:00.74

Peak level 100.0 % Extraction speed 1.5 X Track quality 100.0 % Test CRC F2A05055 Copy CRC F2A05055 Accurately ripped (confidence 2) [3357A0E5] (AR v1) Copy OK

Track 6

Filename C:\Users\user\Documents\Maria de Medeiros - A Little More Blue (2007) [FLAC]\06 - Maria de Medeiros - Tanto mar.wav

Peak level 100.0 % Extraction speed 1.5 X Track quality 100.0 % Test CRC 405AA004 Copy CRC 405AA004 Accurately ripped (confidence 2) [0D492FE5] (AR v1) Copy OK

Track 7

Filename C:\Users\user\Documents\Maria de Medeiros - A Little More Blue (2007) [FLAC]\07 - Maria de Medeiros - O que sera.wav

Pre-gap length 0:00:00.73

Peak level 100.0 % Extraction speed 1.6 X Track quality 100.0 % Test CRC 8DFD575D Copy CRC 8DFD575D Accurately ripped (confidence 2) [AEFE0206] (AR v1) Copy OK

Track 8

Filename C:\Users\user\Documents\Maria de Medeiros - A Little More Blue (2007) [FLAC]\08 - Maria de Medeiros - Comecar de novo.wav

Pre-gap length 0:00:00.21

Peak level 100.0 % Extraction speed 1.7 X Track quality 100.0 % Test CRC F806FEEE Copy CRC F806FEEE Accurately ripped (confidence 2) [3B2B1D94] (AR v1) Copy OK

Track 9

Filename C:\Users\user\Documents\Maria de Medeiros - A Little More Blue (2007) [FLAC]\09 - Maria de Medeiros - Samba e amor.wav

Pre-gap length 0:00:00.67

Peak level 89.8 % Extraction speed 1.9 X Track quality 100.0 % Test CRC A289769C Copy CRC A289769C Accurately ripped (confidence 2) [C15E1533] (AR v1) Copy OK

Track 10

Filename C:\Users\user\Documents\Maria de Medeiros - A Little More Blue (2007) [FLAC]\10 - Maria de Medeiros - O quereres.wav

Peak level 100.0 % Extraction speed 1.9 X Track quality 100.0 % Test CRC EF0E80DC Copy CRC EF0E80DC Accurately ripped (confidence 2) [DD8E8F8D] (AR v1) Copy OK

Track 11

Filename C:\Users\user\Documents\Maria de Medeiros - A Little More Blue (2007) [FLAC]\11 - Maria de Medeiros - Outros sonhos.wav

Pre-gap length 0:00:00.43

Peak level 100.0 % Extraction speed 1.8 X Track quality 100.0 % Test CRC FC90B12E Copy CRC FC90B12E Accurately ripped (confidence 2) [DF5DA39F] (AR v1) Copy OK

Track 12

Filename C:\Users\user\Documents\Maria de Medeiros - A Little More Blue (2007) [FLAC]\12 - Maria de Medeiros - O seu amor.wav

Pre-gap length 0:00:00.61

Peak level 84.7 % Extraction speed 1.3 X Track quality 99.9 % Test CRC 9E1BC563 Copy CRC 9E1BC563 Accurately ripped (confidence 2) [F3AAF5BD] (AR v1) Copy OK

Track 13

Filename C:\Users\user\Documents\Maria de Medeiros - A Little More Blue (2007) [FLAC]\13 - Maria de Medeiros & Jorge Drexler - Ela faz cinema.wav

Pre-gap length 0:00:00.34

Peak level 100.0 % Extraction speed 2.0 X Track quality 100.0 % Test CRC F40329DE Copy CRC F40329DE Accurately ripped (confidence 2) [33DB6F67] (AR v1) Copy OK

Track 14

Filename C:\Users\user\Documents\Maria de Medeiros - A Little More Blue (2007) [FLAC]\14 - Maria de Medeiros - A noite do meu bem.wav

Pre-gap length 0:00:01.34

Peak level 55.8 % Extraction speed 2.1 X Track quality 100.0 % Test CRC B5054F90 Copy CRC B5054F90 Accurately ripped (confidence 2) [3F1B8991] (AR v1) Copy OK

All tracks accurately ripped

No errors occurred

End of status report

==== Log checksum 3AF360B6EFB3C1ADB4C3CC0867BD7EB69D1C07FE0D004FE2F3D4034112C3DBAB ====
 
-----------------------

DON'T MODIFY THIS FILE

-----------------------

PERFORMER: auCDtect Task Manager, ver. 1.5.1RC3 build 1.5.1.4Copyright (c) 2008-2010 y-soft. All rights reservedhttp://y-soft.org

ANALYZER: auCDtect: CD records authenticity detector, version 0.8.2Copyright (c) 2004 Oleg Berngardt. All rights reserved.Copyright (c) 2004 Alexander Djourik. All rights reserved.

FILE: 14 - Maria de Medeiros - A noite do meu bem.flac Size: 14287270 Hash: 2378385A15F06A3D1CD4846E028384DF Accuracy: -m0 Conclusion: CDDA 100% Signature: CCDFDDF83449F328D93A58232412B448B9C37697FILE: 13 - Maria de Medeiros & Jorge Drexler - Ela faz cinema.flac Size: 17646702 Hash: 7077D846399AC8456198A163E94EAF7A Accuracy: -m0 Conclusion: CDDA 100% Signature: 9F08E24388FA102A60ED7584B4E826E163D2D699FILE: 12 - Maria de Medeiros - O seu amor.flac Size: 6902314 Hash: E0577EB6BE7FD0156F0A8D4FD8BE3A91 Accuracy: -m0 Conclusion: CDDA 100% Signature: DBB4B7BC0DD84C1CE4BAB6F148E9022E4D2797AEFILE: 11 - Maria de Medeiros - Outros sonhos.flac Size: 12721277 Hash: 7763F0C70142DE52D0682277EAFD4D59 Accuracy: -m0 Conclusion: CDDA 99% Signature: 8694BB08662FF3119AB86B31730A08EFBC7DE88DFILE: 10 - Maria de Medeiros - O quereres.flac Size: 26764414 Hash: CA1F41D1FF843E194FA9EF1923258234 Accuracy: -m0 Conclusion: CDDA 100% Signature: E83B191CD8D09A2D90EEC1CB4749FC1986095CA2FILE: 09 - Maria de Medeiros - Samba e amor.flac Size: 21981831 Hash: 355C46BCF5AFA7C07AA43F1B5C86411F Accuracy: -m0 Conclusion: CDDA 99% Signature: 82E86BA0578AF41D95507116B729D44F156F749AFILE: 08 - Maria de Medeiros - Comecar de novo.flac Size: 27238454 Hash: 6238F4F019720ABA5F806DA431B6449A Accuracy: -m0 Conclusion: CDDA 62% Signature: EF1D25AEDD4C364D1F8D56D50D91113299580BCEFILE: 07 - Maria de Medeiros - O que sera.flac Size: 21364184 Hash: 0E9E9B02741725D1D0D450F3D0F6FEEE Accuracy: -m0 Conclusion: CDDA 100% Signature: 31AF515A18C5008C2814E9C26D637AAF40670334FILE: 06 - Maria de Medeiros - Tanto mar.flac Size: 16894725 Hash: 7CB97BE619FDEDDF194301DF908458A1 Accuracy: -m0 Conclusion: CDDA 100% Signature: F96BF5FD7A7149946A10328A28ED6D10FD6D7AE5FILE: 05 - Maria de Medeiros - Acalanto.flac Size: 17607553 Hash: 8AD85BA26F9990DC8C111D66B9DC159A Accuracy: -m0 Conclusion: CDDA 100% Signature: 664C717A57B22E6FB3045572D306B8124198B451FILE: 04 - Maria de Medeiros - Samba de Orly.flac Size: 19869430 Hash: 5ACA69356FC5E5E063C28258D430C119 Accuracy: -m0 Conclusion: CDDA 100% Signature: E02EBF3645CD09CF96132D65E4054222936F57E0FILE: 03 - Maria de Medeiros - A little more blue.flac Size: 29564202 Hash: B8290ED9C805ACF8936629E95879E24C Accuracy: -m0 Conclusion: CDDA 100% Signature: FE52B26A780FCF407C9F103B7D3A6289C61FA635FILE: 02 - Maria de Medeiros - Acorda Amor.flac Size: 17243388 Hash: ADCD16EB753ABFE3717E981BD32C162D Accuracy: -m0 Conclusion: CDDA 92% Signature: BC0B54C7C2A2DC61CF52521FD9AEB81A8255DB99FILE: 01 - Maria de Medeiros - Joana Francesa.flac Size: 17373077 Hash: 55BC9DD969FF3AB93CC9493EC1928DE3 Accuracy: -m0 Conclusion: CDDA 100% Signature: 85ED1E6086F67778CD30855728F80730827DC787
 
REM GENRE LatinREM DATE 2007REM DISCID BB0C910EREM COMMENT "ExactAudioCopy v1.0b3"PERFORMER "Maria de Medeiros"TITLE "A Little More Blue"FILE "01 - Maria de Medeiros - Joana Francesa.wav" WAVE TRACK 01 AUDIO TITLE "Joana Francesa" PERFORMER "Maria de Medeiros" INDEX 01 00:00:00FILE "02 - Maria de Medeiros - Acorda Amor.wav" WAVE TRACK 02 AUDIO TITLE "Acorda Amor" PERFORMER "Maria de Medeiros" INDEX 01 00:00:00FILE "03 - Maria de Medeiros - A little more blue.wav" WAVE TRACK 03 AUDIO TITLE "A little more blue" PERFORMER "Maria de Medeiros" INDEX 01 00:00:00FILE "04 - Maria de Medeiros - Samba de Orly.wav" WAVE TRACK 04 AUDIO TITLE "Samba de Orly" PERFORMER "Maria de Medeiros" INDEX 01 00:00:00 TRACK 05 AUDIO TITLE "Acalanto" PERFORMER "Maria de Medeiros" INDEX 00 04:13:59FILE "05 - Maria de Medeiros - Acalanto.wav" WAVE INDEX 01 00:00:00FILE "06 - Maria de Medeiros - Tanto mar.wav" WAVE TRACK 06 AUDIO TITLE "Tanto mar" PERFORMER "Maria de Medeiros" INDEX 01 00:00:00 TRACK 07 AUDIO TITLE "O que sera" PERFORMER "Maria de Medeiros" INDEX 00 03:26:71FILE "07 - Maria de Medeiros - O que sera.wav" WAVE INDEX 01 00:00:00 TRACK 08 AUDIO TITLE "Comecar de novo" PERFORMER "Maria de Medeiros" INDEX 00 04:35:13FILE "08 - Maria de Medeiros - Comecar de novo.wav" WAVE INDEX 01 00:00:00 TRACK 09 AUDIO TITLE "Samba e amor" PERFORMER "Maria de Medeiros" INDEX 00 03:45:46FILE "09 - Maria de Medeiros - Samba e amor.wav" WAVE INDEX 01 00:00:00FILE "10 - Maria de Medeiros - O quereres.wav" WAVE TRACK 10 AUDIO TITLE "O quereres" PERFORMER "Maria de Medeiros" INDEX 01 00:00:00 TRACK 11 AUDIO TITLE "Outros sonhos" PERFORMER "Maria de Medeiros" INDEX 00 04:59:11FILE "11 - Maria de Medeiros - Outros sonhos.wav" WAVE INDEX 01 00:00:00 TRACK 12 AUDIO TITLE "O seu amor" PERFORMER "Maria de Medeiros" INDEX 00 02:31:08FILE "12 - Maria de Medeiros - O seu amor.wav" WAVE INDEX 01 00:00:00 TRACK 13 AUDIO TITLE "Ela faz cinema" PERFORMER "Maria de Medeiros & Jorge Drexler" INDEX 00 01:53:29FILE "13 - Maria de Medeiros & Jorge Drexler - Ela faz cinema.wav" WAVE INDEX 01 00:00:00 TRACK 14 AUDIO TITLE "A noite do meu bem" PERFORMER "Maria de Medeiros" INDEX 00 03:29:71FILE "14 - Maria de Medeiros - A noite do meu bem.wav" WAVE INDEX 01 00:00:00
A little more blue is the title of a song Caetano Veloso wrote when he was living in exile. To me, it reflects no doubt this journey through an intimate and ground-breaking repertoire. We’re going towards something bluer, more melancholic, slightly outside the festive celebration of a culture which is filled with colours and contrasts. I belong to that generation of Portuguese people who were not only brought up in Brazilian music from the cradle but were also strongly influenced by artists such as Chico Buarque, Caetano Veloso, Milton Nascimento and Gilberto Gil. When my friends and I were adolescents in Lisbon, the Revolution was still in full swing. Brazilian artists celebrated the period of joy and liberty we were experiencing in Portugal, and on our side, we listened passionately to their songs. But it wasn’t merely a question of dancing to extraordinary rhythms or humming songs which were imbued with hypnotic languor. Because we were fortunate enough to share their language, we knew that not only were Chico Buarque or Caetano Veloso musicians, they were also great poets, thinkers and supporters of the resistance movement. For us, they were models. Listening to their music was a manner of being and seeing the world. But whereas we were living in freedom, they themselves were under a military dictatorship. They suffered censorship, they were hunted down and forced into exile. Their committed writing contained coded messages which we were able to decipher. Their songs were filled with hope, intelligence and courage. This is particularly true in the case of Chico Buarque’s lyrics, which are admirable in their poetic genius and their spirit of resistance. The young musicians of the “tropicalist” movement, contemporaries of the Beatles and the Rolling Stones, were fired by a remarkable sense of provocation and desire for new expression. Their songs were nonconformist, sexy and unrestrained. An artist such as Caetano Veloso has constantly been seeking out new forms, both musical and poetic. It can be said of him that he has tried everything. His output reflects a thought-process which combines constant curiosity with an audacious and sensual wisdom. Distancing myself a little from the outward aspects of the Carnival, the feathers, the spangles as well as of the universally-acknowledged music standards of Samba and the Bossa Nova, my aim is to revisit these songs which are so full of meaning and at times of the most joyful nonsense, songs which guided my adolescent footsteps and taught me to look at the world with a critical eye, with sensuality, gravity and humour. A somewhat “blue” way of revisiting, perhaps, given the distance which separates us from the revolutionary years, one which certainly bears the mark of the “saudade” of my Portuguese background. I have inherited a shared mother-tongue, but my perception is inevitably different. Also, because I myself live outside my native country. I realize none of the participants in this particular enterprise is Brazilian, all of us perform in areas which are somewhat distant from this musical repertoire. Jeff Cohen is an American-born classical pianist, Joël Grare is a French percussionist who has played in baroque ensembles as well as rock groups, Emek Evci is a bass player born in Istanbul, who has played a lot of jazz and “world music”. As for me, my approach to these songs and their words is essentially that of an actress. We took hold of this repertoire in sheer joy and with a feeling of great liberty, proof no doubt that these Brazilian compositions also belong to the world-wide heritage.María de Medeiros
María de Medeiros - Singer
Joël Grare - Drums
Jeff Cohen - Piano
Emek Evci - Double Bass
We're going towards something bluer, more melancholic, slightly outside the festive celebration of a culture which is filled with colours and contrasts.

Трекер:  [ 09-Фев-2012 15:52 ]

  

Скачать .torrent

Размер .torrent файла 16 KB


Размер: 359 MB
Хэш (hash) релиза: 972e9b14ae2f44a01c5ccd696cd38d57714a466f

Еще никто не оставлял запись к записи скачать торрент Maria de Medeiros - A Little More Blue - 2007, FLAC . Будь первым!

!Обратная связь