Скачать через торрент музыку Duke Ellington - Jazz Moods - Hot - 2004, FLAC бесплатно без регистрации torrent

Если у вас наблюдаются проблемы со скриншотами, переходом по ссылками, скачиванием торрентов - проблемы в блокировщике рекламы AdBlock. #хорошегоДня!


Статистика раздачи
Размер:  148 MB   |    Зарегистрирован:  5 лет 8 месяцев   |    .torrent скачан:  37 раз   |   
Раздают:  1  
   
Загрузка...
 
Автор Сообщение

Galfimbul

avatar Galfimbul


Duke Ellington / Jazz Moods - Hot

Жанр: Jazz, big band, jazz piano
Страна-производитель диска: USA
Год издания диска: 2004
Издатель (лейбл): Columbia/Legacy
Номер по каталогу: B0002ABSRM
Страна: USA
Аудио кодек: FLAC (*.flac)
Тип рипа: tracks+.cue
Битрейт аудио: lossless
Продолжительность: 00:41:50
Источник (релизер): Petru
Наличие сканов в содержимом раздачи: да
Треклист:
1 Hot And Bothered (4:12)
2 It Don't Mean A Thing (If It Ain't Got That Swing) (5:08)
3 Cotton Tail (5:03)
4 The Mooche (3:14)
5 Battle Of Swing (2:57)
6 Rockin' In Rhythm (3:14)
7 Braggin' In Brass (2:43)
8 Caravan (3:05)
9 Ring Dem Bells (4:08)
10 Merry-Go-Round (2:57)
11 East St. Louis Toodle-Oo (5:03)
12 In A Jam (4:18)
13 Take The "A" Train (4:13)
14 Tootin' Through The Roof (4:12)
 
Exact Audio Copy V0.99 prebeta 4 from 23. January 2008

EAC extraction logfile from 2. January 2009, 20:06

Duke Ellington / Jazz Moods - Hot

Used drive : ASUS DRW-2014L1T Adapter: 0 ID: 1

Read mode : SecureUtilize accurate stream : YesDefeat audio cache : YesMake use of C2 pointers : No

Read offset correction : 6Overread into Lead-In and Lead-Out : NoFill up missing offset samples with silence : YesDelete leading and trailing silent blocks : NoNull samples used in CRC calculations : YesUsed interface : Native Win32 interface for Win NT & 2000Gap handling : Appended to previous track

Used output format : User Defined EncoderSelected bitrate : 128 kBit/sQuality : HighAdd ID3 tag : NoCommand line compressor : C:\Program Files\FLAC\flac.exeAdditional command line options : -V -8 -T "artist=%a" -T "title=%t" -T "album=%g" -T "date=%y" -T "tracknumber=%n" -T "genre=%m" %s

TOC of the extracted CD

Track | Start | Length | Start sector | End sector --------------------------------------------------------- 1 | 0:00.00 | 2:52.25 | 0 | 12924 2 | 2:52.25 | 3:09.62 | 12925 | 27161 3 | 6:02.12 | 3:03.25 | 27162 | 40911 4 | 9:05.37 | 3:13.48 | 40912 | 55434 5 | 12:19.10 | 2:56.42 | 55435 | 68676 6 | 15:15.52 | 3:14.30 | 68677 | 83256 7 | 18:30.07 | 2:42.65 | 83257 | 95471 8 | 21:12.72 | 3:04.58 | 95472 | 109329 9 | 24:17.55 | 2:48.12 | 109330 | 121941 10 | 27:05.67 | 2:57.20 | 121942 | 135236 11 | 30:03.12 | 3:04.30 | 135237 | 149066 12 | 33:07.42 | 2:58.05 | 149067 | 162421 13 | 36:05.47 | 2:53.20 | 162422 | 175416 14 | 38:58.67 | 2:52.33 | 175417 | 188349

Track 1

Filename D:\Music\Jazz & Blues\Duke Ellington - 2004 - Jazz Moods - Hot\01 - 1931 - Hot And Bothered.wav

Pre-gap length 0:00:02.00

Peak level 99.8 % Track quality 99.9 % Test CRC 55099FB2 Copy CRC 55099FB2 Copy OK

Track 2

Filename D:\Music\Jazz & Blues\Duke Ellington - 2004 - Jazz Moods - Hot\02 - 1932 - It Don't Mean A Thing (If It Ain't Got That Swing).wav

Peak level 79.3 % Track quality 100.0 % Test CRC 2FFB0684 Copy CRC 2FFB0684 Copy OK

Track 3

Filename D:\Music\Jazz & Blues\Duke Ellington - 2004 - Jazz Moods - Hot\03 - 1940 - Cotton Tail.wav

Pre-gap length 0:00:01.53

Peak level 100.0 % Track quality 100.0 % Test CRC 7773FD54 Copy CRC 7773FD54 Copy OK

Track 4

Filename D:\Music\Jazz & Blues\Duke Ellington - 2004 - Jazz Moods - Hot\04 - 1928 - The Mooche (78 rpm Version).wav

Peak level 75.6 % Track quality 100.0 % Test CRC 9BF51046 Copy CRC 9BF51046 Copy OK

Track 5

Filename D:\Music\Jazz & Blues\Duke Ellington - 2004 - Jazz Moods - Hot\05 - 1939 - Battle Of Swing.wav

Peak level 85.3 % Track quality 100.0 % Test CRC E45EC31B Copy CRC E45EC31B Copy OK

Track 6

Filename D:\Music\Jazz & Blues\Duke Ellington - 2004 - Jazz Moods - Hot\06 - 1931 - Rockin' In Rhythm.wav

Peak level 77.0 % Track quality 100.0 % Test CRC 38CAC029 Copy CRC 38CAC029 Copy OK

Track 7

Filename D:\Music\Jazz & Blues\Duke Ellington - 2004 - Jazz Moods - Hot\07 - 1941 - Braggin' In Brass.wav

Peak level 85.5 % Track quality 100.0 % Test CRC 38497B1E Copy CRC 38497B1E Copy OK

Track 8

Filename D:\Music\Jazz & Blues\Duke Ellington - 2004 - Jazz Moods - Hot\08 - 1937 - Caravan.wav

Peak level 86.1 % Track quality 100.0 % Test CRC 273AB98F Copy CRC 273AB98F Copy OK

Track 9

Filename D:\Music\Jazz & Blues\Duke Ellington - 2004 - Jazz Moods - Hot\09 - 1930 - Ring Dem Bells.wav

Pre-gap length 0:00:01.04

Peak level 83.1 % Track quality 100.0 % Test CRC 06153298 Copy CRC 06153298 Copy OK

Track 10

Filename D:\Music\Jazz & Blues\Duke Ellington - 2004 - Jazz Moods - Hot\10 - 1935 - Merry-Go-Round.wav

Peak level 100.0 % Track quality 100.0 % Test CRC E975CE4B Copy CRC E975CE4B Copy OK

Track 11

Filename D:\Music\Jazz & Blues\Duke Ellington - 2004 - Jazz Moods - Hot\11 - 1927 - East St. Louis Toodle-Oo.wav

Peak level 83.6 % Track quality 100.0 % Test CRC 320A0DAF Copy CRC 320A0DAF Copy OK

Track 12

Filename D:\Music\Jazz & Blues\Duke Ellington - 2004 - Jazz Moods - Hot\12 - 1936 - In A Jam.wav

Peak level 62.5 % Track quality 100.0 % Test CRC 128F8097 Copy CRC 128F8097 Copy OK

Track 13

Filename D:\Music\Jazz & Blues\Duke Ellington - 2004 - Jazz Moods - Hot\13 - 1941 - Take The ''A'' Train.wav

Peak level 87.2 % Track quality 100.0 % Test CRC 5D2C15EB Copy CRC 5D2C15EB Copy OK

Track 14

Filename D:\Music\Jazz & Blues\Duke Ellington - 2004 - Jazz Moods - Hot\14 - 1939 - Tootin' Through The Roof.wav

Peak level 93.3 % Track quality 100.0 % Test CRC 2D5BA91F Copy CRC 2D5BA91F Copy OK

No errors occurred

End of status report
 
REM GENRE JazzREM DATE 2004REM DISCID C009CF0EREM COMMENT "ExactAudioCopy v0.99pb4"PERFORMER "Duke Ellington"TITLE "Jazz Moods - Hot"FILE "01 - 1931 - Hot And Bothered.wav" WAVE TRACK 01 AUDIO TITLE "1931 - Hot And Bothered" PERFORMER "Duke Ellington" INDEX 01 00:00:00FILE "02 - 1932 - It Don't Mean A Thing (If It Ain't Got That Swing).wav" WAVE TRACK 02 AUDIO TITLE "1932 - It Don't Mean A Thing (If It Ain't Got That Swing)" PERFORMER "Duke Ellington" INDEX 01 00:00:00 TRACK 03 AUDIO TITLE "1940 - Cotton Tail" PERFORMER "Duke Ellington" INDEX 00 03:08:22FILE "03 - 1940 - Cotton Tail.wav" WAVE INDEX 01 00:00:00FILE "04 - 1928 - The Mooche (78 rpm Version).wav" WAVE TRACK 04 AUDIO TITLE "1928 - The Mooche (78 rpm Version) " PERFORMER "Duke Ellington" INDEX 01 00:00:00FILE "05 - 1939 - Battle Of Swing.wav" WAVE TRACK 05 AUDIO TITLE "1939 - Battle Of Swing" PERFORMER "Duke Ellington" INDEX 01 00:00:00FILE "06 - 1931 - Rockin' In Rhythm.wav" WAVE TRACK 06 AUDIO TITLE "1931 - Rockin' In Rhythm" PERFORMER "Duke Ellington" INDEX 01 00:00:00FILE "07 - 1941 - Braggin' In Brass.wav" WAVE TRACK 07 AUDIO TITLE "1941 - Braggin' In Brass" PERFORMER "Duke Ellington" INDEX 01 00:00:00FILE "08 - 1937 - Caravan.wav" WAVE TRACK 08 AUDIO TITLE "1937 - Caravan" PERFORMER "Duke Ellington" INDEX 01 00:00:00 TRACK 09 AUDIO TITLE "1930 - Ring Dem Bells" PERFORMER "Duke Ellington" INDEX 00 03:03:55FILE "09 - 1930 - Ring Dem Bells.wav" WAVE INDEX 01 00:00:00FILE "10 - 1935 - Merry-Go-Round.wav" WAVE TRACK 10 AUDIO TITLE "1935 - Merry-Go-Round" PERFORMER "Duke Ellington" INDEX 01 00:00:00FILE "11 - 1927 - East St. Louis Toodle-Oo.wav" WAVE TRACK 11 AUDIO TITLE "1927 - East St. Louis Toodle-Oo" PERFORMER "Duke Ellington" INDEX 01 00:00:00FILE "12 - 1936 - In A Jam.wav" WAVE TRACK 12 AUDIO TITLE "1936 - In A Jam " PERFORMER "Duke Ellington" INDEX 01 00:00:00FILE "13 - 1941 - Take The ''A'' Train.wav" WAVE TRACK 13 AUDIO TITLE "1941 - Take The ''A'' Train" PERFORMER "Duke Ellington" INDEX 01 00:00:00FILE "14 - 1939 - Tootin' Through The Roof.wav" WAVE TRACK 14 AUDIO TITLE "1939 - Tootin' Through The Roof " PERFORMER "Duke Ellington" INDEX 01 00:00:00


Трекер:  [ 05-Фев-2012 15:55 ]

  

Скачать .torrent

Размер .torrent файла 13 KB


Размер: 148 MB
Хэш (hash) релиза: b9559cb40cbad2e438519677c9529ac674acc61f

Еще никто не оставлял запись к записи скачать торрент Duke Ellington - Jazz Moods - Hot - 2004, FLAC . Будь первым!

!Обратная связь