Скачать через торрент музыку Louis Armstrong - Grand Collection - 2001, FLAC бесплатно без регистрации torrent

Если у вас наблюдаются проблемы со скриншотами, переходом по ссылками, скачиванием торрентов - проблемы в блокировщике рекламы AdBlock. #хорошегоДня!


Статистика раздачи
Размер:  532 MB   |    Зарегистрирован:  5 лет 8 месяцев   |    .torrent скачан:  134 раза   |   
Раздают:  1  
   
Загрузка...
 
Автор Сообщение

Galfimbul

avatar Galfimbul


Louis Armstrong / Grand Collection

Жанр: Jazz
Страна-производитель диска: Россия
Год издания диска: 2001
Издатель (лейбл): Квадро-Диск
Страна: США
Аудио кодек: FLAC (*.flac)
Тип рипа: tracks
Битрейт аудио: lossless
Продолжительность: 1:09:34
Источник (релизер): AndryA
Наличие сканов в содержимом раздачи: да
Треклист:
1 Nobody Knows The Trouble I`ve Seen 3:03
2 Shadrack 2:48
3 Go Down Moses 3:42
4 Sometimes I Feel Like A Motherless Child 3:31
5 What A Wonderful World 2:22
6 Hello Dolly 2:29
7 Sittin` In The Sun 3:04
8 Mack The Knife 3:24
9 A Kiss To Build A Dream On 3:07
10 It Takes Two To Tango 2:58
11 That Lucky Old Sun 3:08
12 Kiss Of Fire 3:09
13 I Get Ideas 3:27
14 Gone Fishin` (W Bing Crosby) 2:36
15 Skokiaan 5:00
16 La Vie En Rose 3:29
17 The Dummy Song 2:23
18 Chloe 3:09
19 I Still Get Jealous 2:13
20 When You`re Smiling 4:07
21 Blueberry Hill 2:59
22 When It`s Sleepy Time Down South 3:18
 
dBpoweramp CD Ripper Release 14:compression level 0

Exact Audio Copy V1.0 beta 1 from 15. November 2010

EAC extraction logfile from 10. January 2011, 13:44

Louis Armstrong / Grand Collection

Used drive : Optiarc DVD RW AD-7240S Adapter: 0 ID: 0

Read mode : SecureUtilize accurate stream : YesDefeat audio cache : YesMake use of C2 pointers : No

Read offset correction : 0Overread into Lead-In and Lead-Out : YesFill up missing offset samples with silence : YesDelete leading and trailing silent blocks : NoNull samples used in CRC calculations : YesUsed interface : Native Win32 interface for Win NT & 2000Gap handling : Appended to previous track

Used output format : User Defined EncoderSelected bitrate : 128 kBit/sQuality : HighAdd ID3 tag : NoCommand line compressor : C:\Program Files (x86)\Exact Audio Copy\Flac\flac.exeAdditional command line options : -8 -V -T "ARTIST=%a" -T "TITLE=%t" -T "ALBU

TOC of the extracted CD

Track | Start | Length | Start sector | End sector --------------------------------------------------------- 1 | 0:00.00 | 3:03.18 | 0 | 13742 2 | 3:03.18 | 2:48.30 | 13743 | 26372 3 | 5:51.48 | 3:42.25 | 26373 | 43047 4 | 9:33.73 | 3:31.17 | 43048 | 58889 5 | 13:05.15 | 2:22.08 | 58890 | 69547 6 | 15:27.23 | 2:29.60 | 69548 | 80782 7 | 17:57.08 | 3:04.47 | 80783 | 94629 8 | 21:01.55 | 3:24.51 | 94630 | 109980 9 | 24:26.31 | 3:07.29 | 109981 | 124034 10 | 27:33.60 | 2:58.64 | 124035 | 137448 11 | 30:32.49 | 3:08.24 | 137449 | 151572 12 | 33:40.73 | 3:09.51 | 151573 | 165798 13 | 36:50.49 | 3:27.38 | 165799 | 181361 14 | 40:18.12 | 2:36.20 | 181362 | 193081 15 | 42:54.32 | 5:00.08 | 193082 | 215589 16 | 47:54.40 | 3:29.07 | 215590 | 231271 17 | 51:23.47 | 2:23.19 | 231272 | 242015 18 | 53:46.66 | 3:09.11 | 242016 | 256201 19 | 56:56.02 | 2:13.10 | 256202 | 266186 20 | 59:09.12 | 4:07.37 | 266187 | 284748 21 | 63:16.49 | 2:59.27 | 284749 | 298200 22 | 66:16.01 | 3:18.15 | 298201 | 313065

Track 1

Filename C:\Users\Администратор\Desktop\CD2\01. Louis Armstrong - Track01.wav

Pre-gap length 0:00:02.00

Peak level 75.7 % Extraction speed 1.0 X Track quality 100.0 % Test CRC AFF7D133 Copy CRC AFF7D133 Copy OK

Track 2

Filename C:\Users\Администратор\Desktop\CD2\02. Louis Armstrong - Track02.wav

Pre-gap length 0:00:02.00

Peak level 68.3 % Extraction speed 1.0 X Track quality 100.0 % Test CRC F96BADD9 Copy CRC F96BADD9 Copy OK

Track 3

Filename C:\Users\Администратор\Desktop\CD2\03. Louis Armstrong - Track03.wav

Pre-gap length 0:00:02.00

Peak level 72.6 % Extraction speed 1.0 X Track quality 100.0 % Test CRC 1ABA0082 Copy CRC 1ABA0082 Copy OK

Track 4

Filename C:\Users\Администратор\Desktop\CD2\04. Louis Armstrong - Track04.wav

Pre-gap length 0:00:02.00

Peak level 61.8 % Extraction speed 1.0 X Track quality 100.0 % Test CRC 142ADF62 Copy CRC 142ADF62 Copy OK

Track 5

Filename C:\Users\Администратор\Desktop\CD2\05. Louis Armstrong - Track05.wav

Pre-gap length 0:00:02.00

Peak level 72.7 % Extraction speed 0.8 X Track quality 99.9 % Test CRC 9DA21BEB Copy CRC 9DA21BEB Copy OK

Track 6

Filename C:\Users\Администратор\Desktop\CD2\06. Louis Armstrong - Track06.wav

Pre-gap length 0:00:02.00

Peak level 78.9 % Extraction speed 0.9 X Track quality 100.0 % Test CRC 7F4324E5 Copy CRC 7F4324E5 Copy OK

Track 7

Filename C:\Users\Администратор\Desktop\CD2\07. Louis Armstrong - Track07.wav

Pre-gap length 0:00:02.00

Peak level 66.1 % Extraction speed 0.8 X Track quality 99.9 % Test CRC 1BF04EF4 Copy CRC 1BF04EF4 Copy OK

Track 8

Filename C:\Users\Администратор\Desktop\CD2\08. Louis Armstrong - Track08.wav

Pre-gap length 0:00:02.00

Peak level 66.8 % Extraction speed 1.0 X Track quality 100.0 % Test CRC B05A7C39 Copy CRC B05A7C39 Copy OK

Track 9

Filename C:\Users\Администратор\Desktop\CD2\09. Louis Armstrong - Track09.wav

Pre-gap length 0:00:02.00

Peak level 65.3 % Extraction speed 1.0 X Track quality 100.0 % Test CRC 96DE5DE0 Copy CRC 96DE5DE0 Copy OK

Track 10

Filename C:\Users\Администратор\Desktop\CD2\10. Louis Armstrong - Track10.wav

Pre-gap length 0:00:02.00

Peak level 69.8 % Extraction speed 1.0 X Track quality 100.0 % Test CRC AFD2636F Copy CRC AFD2636F Copy OK

Track 11

Filename C:\Users\Администратор\Desktop\CD2\11. Louis Armstrong - Track11.wav

Pre-gap length 0:00:02.00

Peak level 67.4 % Extraction speed 1.0 X Track quality 100.0 % Test CRC C029E132 Copy CRC C029E132 Copy OK

Track 12

Filename C:\Users\Администратор\Desktop\CD2\12. Louis Armstrong - Track12.wav

Pre-gap length 0:00:02.00

Peak level 70.1 % Extraction speed 1.0 X Track quality 100.0 % Test CRC 70CDCE7C Copy CRC 70CDCE7C Copy OK

Track 13

Filename C:\Users\Администратор\Desktop\CD2\13. Louis Armstrong - Track13.wav

Pre-gap length 0:00:02.00

Peak level 69.3 % Extraction speed 1.0 X Track quality 100.0 % Test CRC C001F6A0 Copy CRC C001F6A0 Copy OK

Track 14

Filename C:\Users\Администратор\Desktop\CD2\14. Louis Armstrong - Track14.wav

Pre-gap length 0:00:02.00

Peak level 68.6 % Extraction speed 0.9 X Track quality 100.0 % Test CRC 6AD99C17 Copy CRC 6AD99C17 Copy OK

Track 15

Filename C:\Users\Администратор\Desktop\CD2\15. Louis Armstrong - Track15.wav

Pre-gap length 0:00:02.00

Peak level 69.5 % Extraction speed 1.1 X Track quality 100.0 % Test CRC 89C62107 Copy CRC 89C62107 Copy OK

Track 16

Filename C:\Users\Администратор\Desktop\CD2\16. Louis Armstrong - Track16.wav

Pre-gap length 0:00:02.00

Peak level 68.7 % Extraction speed 1.0 X Track quality 100.0 % Test CRC 09079DDF Copy CRC 09079DDF Copy OK

Track 17

Filename C:\Users\Администратор\Desktop\CD2\17. Louis Armstrong - Track17.wav

Pre-gap length 0:00:02.00

Peak level 67.0 % Extraction speed 0.9 X Track quality 100.0 % Test CRC 026EE41F Copy CRC 026EE41F Copy OK

Track 18

Filename C:\Users\Администратор\Desktop\CD2\18. Louis Armstrong - Track18.wav

Pre-gap length 0:00:02.00

Peak level 68.2 % Extraction speed 1.0 X Track quality 100.0 % Test CRC 8C669914 Copy CRC 8C669914 Copy OK

Track 19

Filename C:\Users\Администратор\Desktop\CD2\19. Louis Armstrong - Track19.wav

Pre-gap length 0:00:02.00

Peak level 65.4 % Extraction speed 0.7 X Track quality 99.9 % Test CRC E1C39DD9 Copy CRC E1C39DD9 Copy OK

Track 20

Filename C:\Users\Администратор\Desktop\CD2\20. Louis Armstrong - Track20.wav

Pre-gap length 0:00:02.00

Peak level 68.0 % Extraction speed 1.0 X Track quality 100.0 % Test CRC 778C5905 Copy CRC 778C5905 Copy OK

Track 21

Filename C:\Users\Администратор\Desktop\CD2\21. Louis Armstrong - Track21.wav

Pre-gap length 0:00:02.00

Peak level 69.9 % Extraction speed 1.0 X Track quality 100.0 % Test CRC 5B232875 Copy CRC 5B232875 Copy OK

Track 22

Filename C:\Users\Администратор\Desktop\CD2\22. Louis Armstrong - Track22.wav

Pre-gap length 0:00:02.00

Suspicious position 0:03:17

Peak level 100.0 % Extraction speed 1.2 X Track quality 99.7 % Test CRC 3467665A Copy CRC F0055585 Copy finished

There were errors

End of status report
Луис Дэниел «Сэтчмо» Армстронг (англ. Louis Daniel «Satchmo» Armstrong; 4 августа 1901, Новый Орлеан, Луизиана — 6 июля 1971, Нью-Йорк) — американский джазовый трубач, вокалист и руководитель ансамбля. Оказал наибольшее влияние на развитие джаза, и много сделавший для популяризации его во всем мире.


Трекер:  [ 05-Фев-2012 15:50 ]

  

Скачать .torrent

Размер .torrent файла 13 KB


Размер: 532 MB
Хэш (hash) релиза: bacafd72cdc65e94be950c6d868c5e398f84f985

Еще никто не оставлял запись к записи скачать торрент Louis Armstrong - Grand Collection - 2001, FLAC . Будь первым!

!Обратная связь